  0
SECTION
  2
HEADER
  9
$ACADVER
  1
AC1021
  9
$ACADMAINTVER
 70
    25
  9
$DWGCODEPAGE
  3
ANSI_1251
  9
$INSBASE
 10
0.0
 20
0.0
 30
0.0
  9
$EXTMIN
 10
-78.9890167441902
 20
-663.5774875941964
 30
0.0
  9
$EXTMAX
 10
682.5459383357768
 20
99.29027188172648
 30
0.0
  9
$LIMMIN
 10
-20.0
 20
-100.0
  9
$LIMMAX
 10
843.0
 20
110.0
  9
$ORTHOMODE
 70
     0
  9
$REGENMODE
 70
     1
  9
$FILLMODE
 70
     1
  9
$QTEXTMODE
 70
     0
  9
$MIRRTEXT
 70
     0
  9
$LTSCALE
 40
1.0
  9
$ATTMODE
 70
     1
  9
$TEXTSIZE
 40
7.76000022888184
  9
$TRACEWID
 40
1.0
  9
$TEXTSTYLE
  7
Standard
  9
$CLAYER
  8
0
  9
$CELTYPE
  6
ByLayer
  9
$CECOLOR
 62
     7
  9
$CELTSCALE
 40
1.0
  9
$DISPSILH
 70
     0
  9
$DIMSCALE
 40
1.0
  9
$DIMASZ
 40
0.25
  9
$DIMEXO
 40
0.0625
  9
$DIMDLI
 40
0.375
  9
$DIMRND
 40
0.01
  9
$DIMDLE
 40
0.0
  9
$DIMEXE
 40
0.125
  9
$DIMTP
 40
0.0
  9
$DIMTM
 40
0.0
  9
$DIMTXT
 40
0.15
  9
$DIMCEN
 40
0.0
  9
$DIMTSZ
 40
0.0
  9
$DIMTOL
 70
     0
  9
$DIMLIM
 70
     0
  9
$DIMTIH
 70
     1
  9
$DIMTOH
 70
     0
  9
$DIMSE1
 70
     0
  9
$DIMSE2
 70
     0
  9
$DIMTAD
 70
     1
  9
$DIMZIN
 70
     1
  9
$DIMBLK
  1

  9
$DIMASO
 70
     1
  9
$DIMSHO
 70
     1
  9
$DIMPOST
  1
 mm
  9
$DIMAPOST
  1
 mm
  9
$DIMALT
 70
     0
  9
$DIMALTD
 70
     2
  9
$DIMALTF
 40
1.0
  9
$DIMLFAC
 40
1.0
  9
$DIMTOFL
 70
     1
  9
$DIMTVP
 40
0.0
  9
$DIMTIX
 70
     0
  9
$DIMSOXD
 70
     0
  9
$DIMSAH
 70
     0
  9
$DIMBLK1
  1

  9
$DIMBLK2
  1

  9
$DIMSTYLE
  2
Standard
  9
$DIMCLRD
 70
     0
  9
$DIMCLRE
 70
     0
  9
$DIMCLRT
 70
     0
  9
$DIMTFAC
 40
1.0
  9
$DIMGAP
 40
0.0625
  9
$DIMJUST
 70
     0
  9
$DIMSD1
 70
     0
  9
$DIMSD2
 70
     0
  9
$DIMTOLJ
 70
     1
  9
$DIMTZIN
 70
     0
  9
$DIMALTZ
 70
     0
  9
$DIMALTTZ
 70
     0
  9
$DIMUPT
 70
     0
  9
$DIMDEC
 70
     2
  9
$DIMTDEC
 70
     3
  9
$DIMALTU
 70
     2
  9
$DIMALTTD
 70
     2
  9
$DIMTXSTY
  7
Standard
  9
$DIMAUNIT
 70
     0
  9
$DIMADEC
 70
     2
  9
$DIMALTRND
 40
0.01
  9
$DIMAZIN
 70
     0
  9
$DIMDSEP
 70
     0
  9
$DIMATFIT
 70
     3
  9
$DIMFRAC
 70
     2
  9
$DIMLDRBLK
  1

  9
$DIMLUNIT
 70
     2
  9
$DIMLWD
 70
    -2
  9
$DIMLWE
 70
    -2
  9
$DIMTMOVE
 70
     0
  9
$DIMFXL
 40
1.0
  9
$DIMFXLON
 70
     0
  9
$DIMJOGANG
 40
0.7853981633974483
  9
$DIMTFILL
 70
     0
  9
$DIMTFILLCLR
 70
     7
  9
$DIMARCSYM
 70
     0
  9
$DIMLTYPE
  6
ByBlock
  9
$DIMLTEX1
  6
ByBlock
  9
$DIMLTEX2
  6
ByBlock
  9
$LUNITS
 70
     2
  9
$LUPREC
 70
     2
  9
$SKETCHINC
 40
1.0
  9
$FILLETRAD
 40
1.0
  9
$AUNITS
 70
     0
  9
$AUPREC
 70
     2
  9
$MENU
  1
.
  9
$ELEVATION
 40
0.0
  9
$PELEVATION
 40
0.0
  9
$THICKNESS
 40
0.0
  9
$LIMCHECK
 70
     0
  9
$CHAMFERA
 40
0.5
  9
$CHAMFERB
 40
0.5
  9
$CHAMFERC
 40
1.0
  9
$CHAMFERD
 40
0.0
  9
$SKPOLY
 70
     0
  9
$TDCREATE
 40
2456136.807182951
  9
$TDUCREATE
 40
2456136.723849618
  9
$TDUPDATE
 40
2456136.807182963
  9
$TDUUPDATE
 40
2456136.72384963
  9
$TDINDWG
 40
0.0
  9
$TDUSRTIMER
 40
0.0
  9
$USRTIMER
 70
     1
  9
$ANGBASE
 50
0.0
  9
$ANGDIR
 70
     0
  9
$PDMODE
 70
     0
  9
$PDSIZE
 40
0.0
  9
$PLINEWID
 40
0.0
  9
$SPLFRAME
 70
     0
  9
$SPLINETYPE
 70
     5
  9
$SPLINESEGS
 70
    20
  9
$HANDSEED
  5
3F9
  9
$SURFTAB1
 70
     6
  9
$SURFTAB2
 70
     6
  9
$SURFTYPE
 70
     6
  9
$SURFU
 70
     6
  9
$SURFV
 70
     6
  9
$UCSBASE
  2

  9
$UCSNAME
  2

  9
$UCSORG
 10
0.0
 20
0.0
 30
0.0
  9
$UCSXDIR
 10
1.0
 20
0.0
 30
0.0
  9
$UCSYDIR
 10
0.0
 20
1.0
 30
0.0
  9
$UCSORTHOREF
  2

  9
$UCSORTHOVIEW
 70
     0
  9
$UCSORGTOP
 10
0.0
 20
0.0
 30
0.0
  9
$UCSORGBOTTOM
 10
0.0
 20
0.0
 30
0.0
  9
$UCSORGLEFT
 10
0.0
 20
0.0
 30
0.0
  9
$UCSORGRIGHT
 10
0.0
 20
0.0
 30
0.0
  9
$UCSORGFRONT
 10
0.0
 20
0.0
 30
0.0
  9
$UCSORGBACK
 10
0.0
 20
0.0
 30
0.0
  9
$PUCSBASE
  2

  9
$PUCSNAME
  2

  9
$PUCSORG
 10
0.0
 20
0.0
 30
0.0
  9
$PUCSXDIR
 10
1.0
 20
0.0
 30
0.0
  9
$PUCSYDIR
 10
0.0
 20
1.0
 30
0.0
  9
$PUCSORTHOREF
  2

  9
$PUCSORTHOVIEW
 70
     0
  9
$PUCSORGTOP
 10
0.0
 20
0.0
 30
0.0
  9
$PUCSORGBOTTOM
 10
0.0
 20
0.0
 30
0.0
  9
$PUCSORGLEFT
 10
0.0
 20
0.0
 30
0.0
  9
$PUCSORGRIGHT
 10
0.0
 20
0.0
 30
0.0
  9
$PUCSORGFRONT
 10
0.0
 20
0.0
 30
0.0
  9
$PUCSORGBACK
 10
0.0
 20
0.0
 30
0.0
  9
$USERI1
 70
     0
  9
$USERI2
 70
     0
  9
$USERI3
 70
     0
  9
$USERI4
 70
     0
  9
$USERI5
 70
     0
  9
$USERR1
 40
0.0
  9
$USERR2
 40
0.0
  9
$USERR3
 40
0.0
  9
$USERR4
 40
0.0
  9
$USERR5
 40
0.0
  9
$WORLDVIEW
 70
     1
  9
$SHADEDGE
 70
     3
  9
$SHADEDIF
 70
    70
  9
$TILEMODE
 70
     1
  9
$MAXACTVP
 70
    64
  9
$PINSBASE
 10
0.0
 20
0.0
 30
0.0
  9
$PLIMCHECK
 70
     0
  9
$PEXTMIN
 10
0.0
 20
0.0
 30
0.0
  9
$PEXTMAX
 10
297.0
 20
210.0
 30
0.0
  9
$PLIMMIN
 10
0.0
 20
0.0
  9
$PLIMMAX
 10
297.0
 20
210.0
  9
$UNITMODE
 70
     0
  9
$VISRETAIN
 70
     1
  9
$PLINEGEN
 70
     0
  9
$PSLTSCALE
 70
     1
  9
$TREEDEPTH
 70
  3020
  9
$CMLSTYLE
  2
Standard
  9
$CMLJUST
 70
     0
  9
$CMLSCALE
 40
1.0
  9
$PROXYGRAPHICS
 70
     1
  9
$MEASUREMENT
 70
     1
  9
$CELWEIGHT
370
    -1
  9
$ENDCAPS
280
     0
  9
$JOINSTYLE
280
     0
  9
$LWDISPLAY
290
     0
  9
$INSUNITS
 70
     1
  9
$HYPERLINKBASE
  1

  9
$STYLESHEET
  1

  9
$XEDIT
290
     1
  9
$CEPSNTYPE
380
     0
  9
$PSTYLEMODE
290
     1
  9
$FINGERPRINTGUID
  2
{43DCEFA1-638C-4D00-B6E4-7590C9F4D612}
  9
$VERSIONGUID
  2
{FAEB1C32-E019-11D5-929B-00C0DF256EC4}
  9
$EXTNAMES
290
     1
  9
$PSVPSCALE
 40
0.0
  9
$OLESTARTUP
290
     0
  9
$SORTENTS
280
   127
  9
$INDEXCTL
280
     0
  9
$HIDETEXT
280
     1
  9
$XCLIPFRAME
290
     0
  9
$HALOGAP
280
     0
  9
$OBSCOLOR
 70
   257
  9
$OBSLTYPE
280
     0
  9
$INTERSECTIONDISPLAY
280
     0
  9
$INTERSECTIONCOLOR
 70
   257
  9
$DIMASSOC
280
     2
  9
$PROJECTNAME
  1

  9
$CAMERADISPLAY
290
     0
  9
$LENSLENGTH
 40
50.0
  9
$CAMERAHEIGHT
 40
0.0
  9
$STEPSPERSEC
 40
2.0
  9
$STEPSIZE
 40
6.0
  9
$3DDWFPREC
 40
2.0
  9
$PSOLWIDTH
 40
0.25
  9
$PSOLHEIGHT
 40
4.0
  9
$LOFTANG1
 40
1.570796326794897
  9
$LOFTANG2
 40
1.570796326794897
  9
$LOFTMAG1
 40
0.0
  9
$LOFTMAG2
 40
0.0
  9
$LOFTPARAM
 70
     7
  9
$LOFTNORMALS
280
     1
  9
$LATITUDE
 40
37.795
  9
$LONGITUDE
 40
-122.394
  9
$NORTHDIRECTION
 40
0.0
  9
$TIMEZONE
 70
 -8000
  9
$LIGHTGLYPHDISPLAY
280
     1
  9
$TILEMODELIGHTSYNCH
280
     1
  9
$SOLIDHIST
280
     1
  9
$SHOWHIST
280
     1
  9
$DWFFRAME
280
     2
  9
$DGNFRAME
280
     2
  9
$REALWORLDSCALE
290
     1
  9
$INTERFERECOLOR
 62
   256
  9
$CSHADOW
280
     0
  9
$SHADOWPLANELOCATION
 40
0.0
  0
ENDSEC
  0
SECTION
  2
CLASSES
  0
CLASS
  1
ACDBDICTIONARYWDFLT
  2
AcDbDictionaryWithDefault
  3
ObjectDBX Classes
 90
        0
 91
        4
280
     0
281
     0
  0
CLASS
  1
VISUALSTYLE
  2
AcDbVisualStyle
  3
ObjectDBX Classes
 90
     4095
 91
        4
280
     0
281
     0
  0
CLASS
  1
TABLESTYLE
  2
AcDbTableStyle
  3
ObjectDBX Classes
 90
     4095
 91
        4
280
     0
281
     0
  0
CLASS
  1
TCOPTIONALDATA
  2
TcOptionalData
  3
ExTcadCustObjs|Description: TurboCAD extension data object
 90
        0
 91
        4
280
     0
281
     0
  0
CLASS
  1
SCALE
  2
AcDbScale
  3
ObjectDBX Classes
 90
     1153
 91
        4
280
     0
281
     0
  0
CLASS
  1
DIMASSOC
  2
AcDbDimAssoc
  3
"AcDbDimAssoc|Product Desc:     AcDim ARX App For Dimension|Company:          Autodesk, Inc.|WEB Address:      www.autodesk.com"
 90
        0
 91
        4
280
     0
281
     0
  0
CLASS
  1
DICTIONARYVAR
  2
AcDbDictionaryVar
  3
ObjectDBX Classes
 90
        0
 91
        4
280
     0
281
     0
  0
CLASS
  1
CELLSTYLEMAP
  2
AcDbCellStyleMap
  3
ObjectDBX Classes
 90
     1152
 91
        4
280
     0
281
     0
  0
ENDSEC
  0
SECTION
  2
TABLES
  0
TABLE
  2
VPORT
  5
8
330
0
100
AcDbSymbolTable
 70
     1
  0
VPORT
  5
29
330
8
100
AcDbSymbolTableRecord
100
AcDbViewportTableRecord
  2
*Active
 70
     0
 10
0.0
 20
0.0
 11
1.0
 21
1.0
 12
0.0
 22
0.0
 13
0.0
 23
0.0
 14
5.0
 24
5.0
 15
5.0
 25
5.0
 16
0.0
 26
0.0
 36
1.0
 17
278.1464552828269
 27
-53.61055434223778
 37
0.0
 40
335.0681695205032
 41
2.192474674384949
 42
50.0
 43
0.0
 44
0.0
 50
0.0
 51
0.0
 71
     0
 72
   100
 73
     1
 74
     3
 75
     0
 76
     1
 77
     0
 78
     0
281
     0
 65
     1
110
0.0
120
0.0
130
0.0
111
1.0
121
0.0
131
0.0
112
0.0
122
1.0
132
0.0
 79
     0
146
0.0
 60
     3
 61
     5
292
     1
282
     1
141
0.0
142
0.0
 63
   250
  0
ENDTAB
  0
TABLE
  2
LTYPE
  5
5
330
0
100
AcDbSymbolTable
 70
    13
  0
LTYPE
  5
14
330
5
100
AcDbSymbolTableRecord
100
AcDbLinetypeTableRecord
  2
ByBlock
 70
     0
  3

 72
    65
 73
     0
 40
0.0
  0
LTYPE
  5
15
330
5
100
AcDbSymbolTableRecord
100
AcDbLinetypeTableRecord
  2
ByLayer
 70
     0
  3

 72
    65
 73
     0
 40
0.0
  0
LTYPE
  5
16
330
5
100
AcDbSymbolTableRecord
100
AcDbLinetypeTableRecord
  2
Continuous
 70
     0
  3
Solid line
 72
    65
 73
     0
 40
0.0
  0
LTYPE
  5
3C
330
5
100
AcDbSymbolTableRecord
100
AcDbLinetypeTableRecord
  2
BORDER
 70
     0
  3
BORDER
 72
    65
 73
     6
 40
1.75
 49
0.5
 74
     0
 49
-0.25
 74
     0
 49
0.5
 74
     0
 49
-0.25
 74
     0
 49
0.0
 74
     0
 49
-0.25
 74
     0
  0
LTYPE
  5
3D
330
5
100
AcDbSymbolTableRecord
100
AcDbLinetypeTableRecord
  2
CENTER
 70
     0
  3
CENTER
 72
    65
 73
     4
 40
2.0
 49
1.25
 74
     0
 49
-0.25
 74
     0
 49
0.25
 74
     0
 49
-0.25
 74
     0
  0
LTYPE
  5
3E
330
5
100
AcDbSymbolTableRecord
100
AcDbLinetypeTableRecord
  2
DASHDOT
 70
     0
  3
DASHDOT
 72
    65
 73
     4
 40
1.0
 49
0.5
 74
     0
 49
-0.25
 74
     0
 49
0.0
 74
     0
 49
-0.25
 74
     0
  0
LTYPE
  5
3F
330
5
100
AcDbSymbolTableRecord
100
AcDbLinetypeTableRecord
  2
DASHED
 70
     0
  3
DASHED
 72
    65
 73
     2
 40
0.75
 49
0.5
 74
     0
 49
-0.25
 74
     0
  0
LTYPE
  5
40
330
5
100
AcDbSymbolTableRecord
100
AcDbLinetypeTableRecord
  2
DIVIDE
 70
     0
  3
DIVIDE
 72
    65
 73
     6
 40
1.25
 49
0.5
 74
     0
 49
-0.25
 74
     0
 49
0.0
 74
     0
 49
-0.25
 74
     0
 49
0.0
 74
     0
 49
-0.25
 74
     0
  0
LTYPE
  5
41
330
5
100
AcDbSymbolTableRecord
100
AcDbLinetypeTableRecord
  2
DOT
 70
     0
  3
DOT
 72
    65
 73
     2
 40
0.25
 49
0.0
 74
     0
 49
-0.25
 74
     0
  0
LTYPE
  5
42
330
5
100
AcDbSymbolTableRecord
100
AcDbLinetypeTableRecord
  2
HIDDEN
 70
     0
  3
HIDDEN
 72
    65
 73
     2
 40
0.375
 49
0.25
 74
     0
 49
-0.125
 74
     0
  0
LTYPE
  5
43
330
5
100
AcDbSymbolTableRecord
100
AcDbLinetypeTableRecord
  2
PHANTOM
 70
     0
  3
PHANTOM
 72
    65
 73
     6
 40
2.5
 49
1.25
 74
     0
 49
-0.25
 74
     0
 49
0.25
 74
     0
 49
-0.25
 74
     0
 49
0.25
 74
     0
 49
-0.25
 74
     0
  0
LTYPE
  5
44
330
5
100
AcDbSymbolTableRecord
100
AcDbLinetypeTableRecord
  2
$INVISIBLE
 70
     0
  3
$INVISIBLE
 72
    65
 73
     2
 40
200.0
 49
-100.0
 74
     0
 49
-100.0
 74
     0
  0
LTYPE
  5
45
330
5
100
AcDbSymbolTableRecord
100
AcDbLinetypeTableRecord
  2
$AUXILIARY
 70
     0
  3
$AUXILIARY
 72
    65
 73
     2
 40
0.1000000014901161
 49
0.0500000007450581
 74
     0
 49
-0.0500000007450581
 74
     0
  0
LTYPE
  5
46
330
5
100
AcDbSymbolTableRecord
100
AcDbLinetypeTableRecord
  2
$CONSTRUCTION
 70
     0
  3
$CONSTRUCTION
 72
    65
 73
     4
 40
0.3
 49
0.2
 74
     0
 49
-0.05
 74
     0
 49
0.0
 74
     0
 49
-0.05
 74
     0
  0
LTYPE
  5
47
330
5
100
AcDbSymbolTableRecord
100
AcDbLinetypeTableRecord
  2
$SNAPEXT
 70
     0
  3
$SNAPEXT
 72
    65
 73
     2
 40
0.04
 49
0.02
 74
     0
 49
-0.02
 74
     0
  0
ENDTAB
  0
TABLE
  2
LAYER
  5
2
330
0
100
AcDbSymbolTable
 70
     2
  0
LAYER
  5
10
330
2
100
AcDbSymbolTableRecord
100
AcDbLayerTableRecord
  2
0
 70
     0
 62
     7
  6
Continuous
370
     0
390
F
347
0
  0
LAYER
  5
AC
330
2
100
AcDbSymbolTableRecord
100
AcDbLayerTableRecord
  2
Defpoints
 70
     0
 62
     7
  6
Continuous
290
     0
370
    -3
390
F
347
0
  0
ENDTAB
  0
TABLE
  2
STYLE
  5
3
330
0
100
AcDbSymbolTable
 70
     2
  0
STYLE
  5
11
330
3
100
AcDbSymbolTableRecord
100
AcDbTextStyleTableRecord
  2
Standard
 70
     0
 40
0.0
 41
1.0
 50
0.0
 71
     0
 42
0.25
  3
times.ttf
  4

1001
ACAD
1000
Times New Roman
1071
      290
  0
STYLE
  5
3A2
330
3
100
AcDbSymbolTableRecord
100
AcDbTextStyleTableRecord
  2
_TCW_TXTSTY_1
 70
     0
 40
0.0
 41
1.0
 50
0.0
 71
     0
 42
4.656000137329102
  3

  4

1001
ACAD
1000
Times New Roman
1071
      290
  0
ENDTAB
  0
TABLE
  2
VIEW
  5
6
330
0
100
AcDbSymbolTable
 70
     1
  0
VIEW
  5
48
330
6
100
AcDbSymbolTableRecord
100
AcDbViewTableRecord
  2
View_0
 70
     0
 40
210.0
 10
148.5
 20
105.0
 41
297.0
 11
0.0
 21
0.0
 31
1.0
 12
162.9867012106304
 22
127.0714241431939
 32
-1.0
 42
50.0
 43
0.0
 44
0.0
 50
0.0
 71
     0
281
     0
 72
     0
 73
     0
  0
ENDTAB
  0
TABLE
  2
UCS
  5
7
330
0
100
AcDbSymbolTable
 70
     0
  0
ENDTAB
  0
TABLE
  2
APPID
  5
9
330
0
100
AcDbSymbolTable
 70
     2
  0
APPID
  5
12
330
9
100
AcDbSymbolTableRecord
100
AcDbRegAppTableRecord
  2
ACAD
 70
     0
  0
APPID
  5
3B
330
9
100
AcDbSymbolTableRecord
100
AcDbRegAppTableRecord
  2
TCAD
 70
     0
  0
ENDTAB
  0
TABLE
  2
DIMSTYLE
  5
A
330
0
100
AcDbSymbolTable
 70
     3
100
AcDbDimStyleTable
  0
DIMSTYLE
105
27
102
{ACAD_REACTORS
330
AA
330
2C5
330
2D6
330
33C
330
34D
330
35D
330
36E
330
385
330
3CF
330
3DF
102
}
330
A
100
AcDbSymbolTableRecord
100
AcDbDimStyleTableRecord
  2
Standard
 70
     0
  3
 mm
  4
 mm
 41
0.25
 43
0.375
 44
0.125
 45
0.01
 74
     0
 77
     1
 78
     1
140
0.15
141
0.0
143
1.0
147
0.0625
148
0.01
172
     1
271
     2
272
     3
276
     2
278
     0
340
11
345
14
346
14
347
14
  0
DIMSTYLE
105
49
330
A
100
AcDbSymbolTableRecord
100
AcDbDimStyleTableRecord
  2
Common Dimension Style 1
 70
     0
  3
 mm
  4
 mm
 41
0.25
 43
0.375
 44
0.125
 45
0.01
 74
     0
 77
     1
 78
     1
140
0.15
141
0.0
143
1.0
147
0.0625
148
0.01
172
     1
179
     2
271
     2
272
     3
276
     2
278
     0
340
11
345
14
346
14
347
14
  0
DIMSTYLE
105
4A
330
A
100
AcDbSymbolTableRecord
100
AcDbDimStyleTableRecord
  2
Common Dimension Style 2
 70
     0
  3
 mm
  4
 mm
 41
0.25
 43
0.375
 44
0.125
 45
0.01
 74
     0
 77
     1
 78
     1
140
0.15
141
0.0
143
1.0
147
0.0625
148
0.01
172
     1
179
     2
271
     2
272
     3
276
     2
278
     0
340
11
345
14
346
14
347
14
  0
ENDTAB
  0
TABLE
  2
BLOCK_RECORD
  5
1
330
0
100
AcDbSymbolTable
 70
    11
  0
BLOCK_RECORD
  5
1F
330
1
100
AcDbSymbolTableRecord
100
AcDbBlockTableRecord
  2
*Model_Space
340
22
 70
     0
280
     1
281
     0
  0
BLOCK_RECORD
  5
1B
330
1
100
AcDbSymbolTableRecord
100
AcDbBlockTableRecord
  2
*Paper_Space
340
1E
 70
     0
280
     1
281
     0
  0
BLOCK_RECORD
  5
AD
330
1
100
AcDbSymbolTableRecord
100
AcDbBlockTableRecord
  2
*D1
340
0
 70
     0
280
     1
281
     0
  0
BLOCK_RECORD
  5
2C7
330
1
100
AcDbSymbolTableRecord
100
AcDbBlockTableRecord
  2
*D2
340
0
 70
     0
280
     1
281
     0
  0
BLOCK_RECORD
  5
2D7
330
1
100
AcDbSymbolTableRecord
100
AcDbBlockTableRecord
  2
*D3
340
0
 70
     0
280
     1
281
     0
  0
BLOCK_RECORD
  5
33E
330
1
100
AcDbSymbolTableRecord
100
AcDbBlockTableRecord
  2
*D4
340
0
 70
     0
280
     1
281
     0
  0
BLOCK_RECORD
  5
34E
330
1
100
AcDbSymbolTableRecord
100
AcDbBlockTableRecord
  2
*D5
340
0
 70
     0
280
     1
281
     0
  0
BLOCK_RECORD
  5
35F
330
1
100
AcDbSymbolTableRecord
100
AcDbBlockTableRecord
  2
*D6
340
0
 70
     0
280
     1
281
     0
  0
BLOCK_RECORD
  5
370
330
1
100
AcDbSymbolTableRecord
100
AcDbBlockTableRecord
  2
*D7
340
0
 70
     0
280
     1
281
     0
  0
BLOCK_RECORD
  5
387
330
1
100
AcDbSymbolTableRecord
100
AcDbBlockTableRecord
  2
*D8
340
0
 70
     0
280
     1
281
     0
  0
BLOCK_RECORD
  5
3D0
330
1
100
AcDbSymbolTableRecord
100
AcDbBlockTableRecord
  2
*D9
340
0
 70
     0
280
     1
281
     0
  0
BLOCK_RECORD
  5
3E1
330
1
100
AcDbSymbolTableRecord
100
AcDbBlockTableRecord
  2
*D10
340
0
 70
     0
280
     1
281
     0
  0
ENDTAB
  0
ENDSEC
  0
SECTION
  2
BLOCKS
  0
BLOCK
  5
20
330
1F
100
AcDbEntity
  8
0
100
AcDbBlockBegin
  2
*Model_Space
 70
     0
 10
0.0
 20
0.0
 30
0.0
  3
*Model_Space
  1

  0
ENDBLK
  5
21
330
1F
100
AcDbEntity
  8
0
100
AcDbBlockEnd
  0
BLOCK
  5
1C
330
1B
100
AcDbEntity
 67
     1
  8
0
100
AcDbBlockBegin
  2
*Paper_Space
 70
     0
 10
0.0
 20
0.0
 30
0.0
  3
*Paper_Space
  1

  0
ENDBLK
  5
1D
330
1B
100
AcDbEntity
 67
     1
  8
0
100
AcDbBlockEnd
  0
BLOCK
  5
B9
330
AD
100
AcDbEntity
  8
0
100
AcDbBlockBegin
  2
*D1
 70
     1
 10
0.0
 20
0.0
 30
0.0
  3
*D1
  1

  0
LINE
  5
AE
330
AD
100
AcDbEntity
  8
0
  6
ByBlock
 62
     7
370
    -2
100
AcDbLine
 10
222.5107494771703
 20
6.47100529015681
 30
0.0
 11
235.7356685385447
 21
6.70452071522667
 31
0.0
  0
LINE
  5
AF
330
AD
100
AcDbEntity
  8
0
  6
ByBlock
 62
     7
370
    -2
100
AcDbLine
 10
222.2458644006398
 20
21.47251406257951
 30
0.0
 11
235.4707834620142
 21
21.70602948764937
 31
0.0
  0
LINE
  5
B0
330
AD
100
AcDbEntity
  8
0
  6
ByBlock
 62
     7
370
    -2
100
AcDbLine
 10
232.3829786336399
 20
26.65228679412546
 30
0.0
 11
213.4445401952015
 21
26.65228679412546
 31
0.0
  0
LINE
  5
B1
330
AD
100
AcDbEntity
  8
0
  6
ByBlock
 62
     7
370
    -2
100
AcDbLine
 10
232.6478637101704
 20
11.65077802170276
 30
0.0
 11
232.5595234049468
 21
16.65384531838914
 31
0.0
  0
LINE
  5
B2
330
AD
100
AcDbEntity
  8
0
  6
ByBlock
 62
     7
370
    -2
100
AcDbLine
 10
232.4712510192933
 20
21.6530660562573
 30
0.0
 11
232.3829786336399
 21
26.65228679412546
 31
0.0
  0
SOLID
  5
B3
330
AD
100
AcDbEntity
  8
0
 62
     7
100
AcDbTrace
 10
231.814660253859
 20
11.63606595742718
 30
0.0
 11
233.4810671664817
 21
11.66549008597833
 31
0.0
 12
232.7361360958238
 22
6.651557283834599
 32
0.0
 13
232.7361360958238
 23
6.651557283834599
 33
0.0
  0
SOLID
  5
B4
330
AD
100
AcDbEntity
  8
0
 62
     7
100
AcDbTrace
 10
233.3927268612582
 20
16.66855738266472
 30
0.0
 11
231.7263199486354
 21
16.63913325411357
 31
0.0
 12
232.4712510192933
 22
21.6530660562573
 32
0.0
 13
232.4712510192933
 23
21.6530660562573
 33
0.0
  0
MTEXT
  5
B5
330
AD
100
AcDbEntity
  8
0
 62
     7
100
AcDbMText
 10
222.1637594144207
 20
29.68231682415549
 30
0.0
 40
3.0
 41
0.0
 46
0.0
 71
     5
 72
     1
  1
\A1;15.00 mm
 73
     1
 44
1.0
  0
POINT
  5
B6
330
AD
100
AcDbEntity
  8
Defpoints
 62
     0
100
AcDbPoint
 10
221.0109832558098
 20
6.444523574460774
 30
0.0
  0
POINT
  5
B7
330
AD
100
AcDbEntity
  8
Defpoints
 62
     0
100
AcDbPoint
 10
220.7460981792794
 20
21.44603234688348
 30
0.0
  0
POINT
  5
B8
330
AD
100
AcDbEntity
  8
Defpoints
 62
     0
100
AcDbPoint
 10
232.4712510192933
 20
21.6530660562573
 30
0.0
  0
ENDBLK
  5
BA
330
AD
100
AcDbEntity
  8
0
100
AcDbBlockEnd
  0
BLOCK
  5
2D2
330
2C7
100
AcDbEntity
  8
0
100
AcDbBlockBegin
  2
*D2
 70
     1
 10
0.0
 20
0.0
 30
0.0
  3
*D2
  1

  0
LINE
  5
2C8
330
2C7
100
AcDbEntity
  8
0
  6
ByBlock
 62
     7
370
    -2
100
AcDbLine
 10
0.000771214535034
 20
43.83459283291962
 30
0.0
 11
0.440867998829316
 21
99.29027188172648
 31
0.0
  0
LINE
  5
2C9
330
2C7
100
AcDbEntity
  8
0
  6
ByBlock
 62
     7
370
    -2
100
AcDbLine
 10
640.6615428163942
 20
38.75030299567302
 30
0.0
 11
641.1016396006885
 21
94.20598204447988
 31
0.0
  0
LINE
  5
2CA
330
2C7
100
AcDbEntity
  8
0
  6
ByBlock
 62
     7
370
    -2
100
AcDbLine
 10
5.416903277459942
 20
96.25068755063391
 30
0.0
 11
312.0252242993392
 21
93.8174410656196
 31
0.0
  0
LINE
  5
2CB
330
2C7
100
AcDbEntity
  8
0
  6
ByBlock
 62
     7
370
    -2
100
AcDbLine
 10
636.077989765663
 20
91.24575530737877
 30
0.0
 11
329.4696687437837
 21
93.67900179239308
 31
0.0
  0
SOLID
  5
2CC
330
2C7
100
AcDbEntity
  8
0
 62
     7
100
AcDbTrace
 10
5.423516410292562
 20
97.08399464343859
 30
0.0
 11
5.410290144627321
 21
95.41738045782924
 31
0.0
 12
0.4170607206318806
 22
96.29036634762964
 32
0.0
 13
0.4170607206318806
 23
96.29036634762964
 33
0.0
  0
SOLID
  5
2CD
330
2C7
100
AcDbEntity
  8
0
 62
     7
100
AcDbTrace
 10
636.0713766328304
 20
90.4124482145741
 30
0.0
 11
636.0846028984956
 21
92.07906240018345
 31
0.0
 12
641.0778323224911
 22
91.20607651038304
 32
0.0
 13
641.0778323224911
 23
91.20607651038304
 33
0.0
  0
MTEXT
  5
2CE
330
2C7
100
AcDbEntity
  8
0
 62
     7
100
AcDbMText
 10
320.7474465215615
 20
93.74822142900635
 30
0.0
 40
3.0
 41
0.0
 46
0.0
 71
     5
 72
     1
  1
\A1;641 mm
 73
     1
 44
1.0
  0
POINT
  5
2CF
330
2C7
100
AcDbEntity
  8
Defpoints
 62
     0
100
AcDbPoint
 10
-0.0111324245636837
 20
42.3346400658712
 30
0.0
  0
POINT
  5
2D0
330
2C7
100
AcDbEntity
  8
Defpoints
 62
     0
100
AcDbPoint
 10
640.6496391772955
 20
37.2503502286246
 30
0.0
  0
POINT
  5
2D1
330
2C7
100
AcDbEntity
  8
Defpoints
 62
     0
100
AcDbPoint
 10
641.0778323224911
 20
91.20607651038304
 30
0.0
  0
ENDBLK
  5
2D3
330
2C7
100
AcDbEntity
  8
0
100
AcDbBlockEnd
  0
BLOCK
  5
2E1
330
2D7
100
AcDbEntity
  8
0
100
AcDbBlockBegin
  2
*D3
 70
     1
 10
0.0
 20
0.0
 30
0.0
  3
*D3
  1

  0
LINE
  5
2D8
330
2D7
100
AcDbEntity
  8
0
  6
ByBlock
 62
     7
370
    -2
100
AcDbLine
 10
42.84853482812065
 20
33.64387493133545
 30
0.0
 11
42.84853482812065
 21
-13.61514040565291
 31
0.0
  0
LINE
  5
2D9
330
2D7
100
AcDbEntity
  8
0
  6
ByBlock
 62
     7
370
    -2
100
AcDbLine
 10
640.5644443193987
 20
33.6438749313353
 30
0.0
 11
640.5644443193987
 21
-13.61514040565306
 31
0.0
  0
LINE
  5
2DA
330
2D7
100
AcDbEntity
  8
0
  6
ByBlock
 62
     7
370
    -2
100
AcDbLine
 10
47.84853482812065
 20
-10.61514040565291
 30
0.0
 11
635.5644443193987
 21
-10.61514040565306
 31
0.0
  0
SOLID
  5
2DB
330
2D7
100
AcDbEntity
  8
0
 62
     7
100
AcDbTrace
 10
47.84853482812065
 20
-9.781807072319577
 30
0.0
 11
47.84853482812065
 21
-11.44847373898624
 31
0.0
 12
42.84853482812065
 22
-10.61514040565291
 32
0.0
 13
42.84853482812065
 23
-10.61514040565291
 33
0.0
  0
SOLID
  5
2DC
330
2D7
100
AcDbEntity
  8
0
 62
     7
100
AcDbTrace
 10
635.5644443193987
 20
-11.44847373898639
 30
0.0
 11
635.5644443193987
 21
-9.781807072319722
 31
0.0
 12
640.5644443193987
 22
-10.61514040565306
 32
0.0
 13
640.5644443193987
 23
-10.61514040565306
 33
0.0
  0
MTEXT
  5
2DD
330
2D7
100
AcDbEntity
  8
0
 62
     7
100
AcDbMText
 10
341.7064895737597
 20
-7.58511037562295
 30
0.0
 40
3.0
 41
0.0
 46
0.0
 71
     5
 72
     1
  1
\A1;598 mm
 73
     1
 44
1.0
  0
POINT
  5
2DE
330
2D7
100
AcDbEntity
  8
Defpoints
 62
     0
100
AcDbPoint
 10
42.84853482812065
 20
35.14387493133545
 30
0.0
  0
POINT
  5
2DF
330
2D7
100
AcDbEntity
  8
Defpoints
 62
     0
100
AcDbPoint
 10
640.5644443193987
 20
35.1438749313353
 30
0.0
  0
POINT
  5
2E0
330
2D7
100
AcDbEntity
  8
Defpoints
 62
     0
100
AcDbPoint
 10
640.5644443193987
 20
-10.61514040565306
 30
0.0
  0
ENDBLK
  5
2E2
330
2D7
100
AcDbEntity
  8
0
100
AcDbBlockEnd
  0
BLOCK
  5
349
330
33E
100
AcDbEntity
  8
0
100
AcDbBlockBegin
  2
*D4
 70
     1
 10
0.0
 20
0.0
 30
0.0
  3
*D4
  1

  0
LINE
  5
33F
330
33E
100
AcDbEntity
  8
0
  6
ByBlock
 62
     7
370
    -2
100
AcDbLine
 10
270.25
 20
-109.0
 30
0.0
 11
314.722543222002
 21
-109.0
 31
0.0
  0
LINE
  5
340
330
33E
100
AcDbEntity
  8
0
  6
ByBlock
 62
     7
370
    -2
100
AcDbLine
 10
270.25
 20
-150.0
 30
0.0
 11
314.722543222002
 21
-150.0
 31
0.0
  0
LINE
  5
341
330
33E
100
AcDbEntity
  8
0
  6
ByBlock
 62
     7
370
    -2
100
AcDbLine
 10
311.722543222002
 20
-114.0
 30
0.0
 11
311.722543222002
 21
-125.882
 31
0.0
  0
LINE
  5
342
330
33E
100
AcDbEntity
  8
0
  6
ByBlock
 62
     7
370
    -2
100
AcDbLine
 10
311.722543222002
 20
-145.0
 30
0.0
 11
311.722543222002
 21
-133.118
 31
0.0
  0
SOLID
  5
343
330
33E
100
AcDbEntity
  8
0
 62
     7
100
AcDbTrace
 10
312.5558765553353
 20
-114.0
 30
0.0
 11
310.8892098886687
 21
-114.0
 31
0.0
 12
311.722543222002
 22
-109.0
 32
0.0
 13
311.722543222002
 23
-109.0
 33
0.0
  0
SOLID
  5
344
330
33E
100
AcDbEntity
  8
0
 62
     7
100
AcDbTrace
 10
310.8892098886687
 20
-145.0
 30
0.0
 11
312.5558765553353
 21
-145.0
 31
0.0
 12
311.722543222002
 22
-150.0
 32
0.0
 13
311.722543222002
 23
-150.0
 33
0.0
  0
MTEXT
  5
345
330
33E
100
AcDbEntity
  8
0
 62
     7
100
AcDbMText
 10
311.722543222002
 20
-129.5
 30
0.0
 40
4.236
 41
0.0
 46
0.0
 71
     5
 72
     1
  1
\A1;41 mm
 73
     1
 44
1.0
  0
POINT
  5
346
330
33E
100
AcDbEntity
  8
Defpoints
 62
     0
100
AcDbPoint
 10
268.75
 20
-109.0
 30
0.0
  0
POINT
  5
347
330
33E
100
AcDbEntity
  8
Defpoints
 62
     0
100
AcDbPoint
 10
268.75
 20
-150.0
 30
0.0
  0
POINT
  5
348
330
33E
100
AcDbEntity
  8
Defpoints
 62
     0
100
AcDbPoint
 10
311.722543222002
 20
-150.0
 30
0.0
  0
ENDBLK
  5
34A
330
33E
100
AcDbEntity
  8
0
100
AcDbBlockEnd
  0
BLOCK
  5
359
330
34E
100
AcDbEntity
  8
0
100
AcDbBlockBegin
  2
*D5
 70
     1
 10
0.0
 20
0.0
 30
0.0
  3
*D5
  1

  0
LINE
  5
34F
330
34E
100
AcDbEntity
  8
0
  6
ByBlock
 62
     7
370
    -2
100
AcDbLine
 10
161.1274937021419
 20
-150.0
 30
0.0
 11
129.2294738971219
 21
-150.0
 31
0.0
  0
LINE
  5
350
330
34E
100
AcDbEntity
  8
0
  6
ByBlock
 62
     7
370
    -2
100
AcDbLine
 10
161.1274937021419
 20
-279.505968954108
 30
0.0
 11
129.2294738971219
 21
-279.505968954108
 31
0.0
  0
LINE
  5
351
330
34E
100
AcDbEntity
  8
0
  6
ByBlock
 62
     7
370
    -2
100
AcDbLine
 10
132.2294738971219
 20
-155.0
 30
0.0
 11
132.2294738971219
 21
-211.0989424350119
 31
0.0
  0
LINE
  5
352
330
34E
100
AcDbEntity
  8
0
  6
ByBlock
 62
     7
370
    -2
100
AcDbLine
 10
132.2294738971219
 20
-274.505968954108
 30
0.0
 11
132.2294738971219
 21
-218.4070265190961
 31
0.0
  0
SOLID
  5
353
330
34E
100
AcDbEntity
  8
0
 62
     7
100
AcDbTrace
 10
133.0628072304552
 20
-155.0
 30
0.0
 11
131.3961405637885
 21
-155.0
 31
0.0
 12
132.2294738971219
 22
-150.0
 32
0.0
 13
132.2294738971219
 23
-150.0
 33
0.0
  0
SOLID
  5
354
330
34E
100
AcDbEntity
  8
0
 62
     7
100
AcDbTrace
 10
131.3961405637885
 20
-274.505968954108
 30
0.0
 11
133.0628072304552
 21
-274.505968954108
 31
0.0
 12
132.2294738971219
 22
-279.505968954108
 32
0.0
 13
132.2294738971219
 23
-279.505968954108
 33
0.0
  0
MTEXT
  5
355
330
34E
100
AcDbEntity
  8
0
 62
     7
100
AcDbMText
 10
132.2294738971219
 20
-214.752984477054
 30
0.0
 40
4.236
 41
0.0
 46
0.0
 71
     5
 72
     1
  1
\A1;130 mm
 73
     1
 44
1.0
  0
POINT
  5
356
330
34E
100
AcDbEntity
  8
Defpoints
 62
     0
100
AcDbPoint
 10
162.6274937021419
 20
-150.0
 30
0.0
  0
POINT
  5
357
330
34E
100
AcDbEntity
  8
Defpoints
 62
     0
100
AcDbPoint
 10
162.6274937021419
 20
-279.505968954108
 30
0.0
  0
POINT
  5
358
330
34E
100
AcDbEntity
  8
Defpoints
 62
     0
100
AcDbPoint
 10
132.2294738971219
 20
-279.505968954108
 30
0.0
  0
ENDBLK
  5
35A
330
34E
100
AcDbEntity
  8
0
100
AcDbBlockEnd
  0
BLOCK
  5
36A
330
35F
100
AcDbEntity
  8
0
100
AcDbBlockBegin
  2
*D6
 70
     1
 10
0.0
 20
0.0
 30
0.0
  3
*D6
  1

  0
LINE
  5
360
330
35F
100
AcDbEntity
  8
0
  6
ByBlock
 62
     7
370
    -2
100
AcDbLine
 10
-1.499999999837803
 20
-150.0000220588235
 30
0.0
 11
-26.3844387809181
 21
-150.0003880064527
 31
0.0
  0
LINE
  5
361
330
35F
100
AcDbEntity
  8
0
  6
ByBlock
 62
     7
370
    -2
100
AcDbLine
 10
-1.494999999837788
 20
-490.0000220588235
 30
0.0
 11
-26.37943878091808
 21
-490.0003880064527
 31
0.0
  0
LINE
  5
362
330
35F
100
AcDbEntity
  8
0
  6
ByBlock
 62
     7
370
    -2
100
AcDbLine
 10
-23.38436525183073
 20
-155.0003438882649
 30
0.0
 11
-23.38199251715487
 21
-316.3463018467636
 31
0.0
  0
LINE
  5
363
330
35F
100
AcDbEntity
  8
0
  6
ByBlock
 62
     7
370
    -2
100
AcDbLine
 10
-23.37951231065423
 20
-485.0003438893463
 30
0.0
 11
-23.3818850453301
 21
-323.6543859308476
 31
0.0
  0
SOLID
  5
364
330
35F
100
AcDbEntity
  8
0
 62
     7
100
AcDbTrace
 10
-22.55103191858751
 20
-155.000331633363
 30
0.0
 11
-24.21769858507396
 21
-155.0003561431669
 31
0.0
 12
-23.38443878124249
 22
-150.0003438888056
 32
0.0
 13
-23.38443878124249
 23
-150.0003438888056
 33
0.0
  0
SOLID
  5
365
330
35F
100
AcDbEntity
  8
0
 62
     7
100
AcDbTrace
 10
-24.21284564389746
 20
-485.0003561442482
 30
0.0
 11
-22.54617897741101
 21
-485.0003316344443
 31
0.0
 12
-23.37943878124248
 22
-490.0003438888056
 32
0.0
 13
-23.37943878124248
 23
-490.0003438888056
 33
0.0
  0
MTEXT
  5
366
330
35F
100
AcDbEntity
  8
0
 62
     7
100
AcDbMText
 10
-23.38193878124248
 20
-320.0003438888056
 30
0.0
 40
4.236
 41
0.0
 46
0.0
 71
     5
 72
     1
  1
\A1;340 mm
 73
     1
 44
1.0
  0
POINT
  5
367
330
35F
100
AcDbEntity
  8
Defpoints
 62
     0
100
AcDbPoint
 10
0.0
 20
-150.0
 30
0.0
  0
POINT
  5
368
330
35F
100
AcDbEntity
  8
Defpoints
 62
     0
100
AcDbPoint
 10
0.0050000000000143
 20
-490.0
 30
0.0
  0
POINT
  5
369
330
35F
100
AcDbEntity
  8
Defpoints
 62
     0
100
AcDbPoint
 10
-23.37943878124248
 20
-490.0003438888056
 30
0.0
  0
ENDBLK
  5
36B
330
35F
100
AcDbEntity
  8
0
100
AcDbBlockEnd
  0
BLOCK
  5
37B
330
370
100
AcDbEntity
  8
0
100
AcDbBlockBegin
  2
*D7
 70
     1
 10
0.0
 20
0.0
 30
0.0
  3
*D7
  1

  0
LINE
  5
371
330
370
100
AcDbEntity
  8
0
  6
ByBlock
 62
     7
370
    -2
100
AcDbLine
 10
642.57
 20
-279.7400000000002
 30
0.0
 11
676.6037313770023
 21
-279.7400000000002
 31
0.0
  0
LINE
  5
372
330
370
100
AcDbEntity
  8
0
  6
ByBlock
 62
     7
370
    -2
100
AcDbLine
 10
642.57
 20
-359.74
 30
0.0
 11
676.6037313770023
 21
-359.74
 31
0.0
  0
LINE
  5
373
330
370
100
AcDbEntity
  8
0
  6
ByBlock
 62
     7
370
    -2
100
AcDbLine
 10
673.6037313770023
 20
-284.7400000000002
 30
0.0
 11
673.6037313770023
 21
-316.0859579579581
 31
0.0
  0
LINE
  5
374
330
370
100
AcDbEntity
  8
0
  6
ByBlock
 62
     7
370
    -2
100
AcDbLine
 10
673.6037313770023
 20
-354.74
 30
0.0
 11
673.6037313770023
 21
-323.3940420420421
 31
0.0
  0
SOLID
  5
375
330
370
100
AcDbEntity
  8
0
 62
     7
100
AcDbTrace
 10
674.4370647103357
 20
-284.7400000000002
 30
0.0
 11
672.7703980436689
 21
-284.7400000000002
 31
0.0
 12
673.6037313770023
 22
-279.7400000000002
 32
0.0
 13
673.6037313770023
 23
-279.7400000000002
 33
0.0
  0
SOLID
  5
376
330
370
100
AcDbEntity
  8
0
 62
     7
100
AcDbTrace
 10
672.7703980436689
 20
-354.74
 30
0.0
 11
674.4370647103357
 21
-354.74
 31
0.0
 12
673.6037313770023
 22
-359.74
 32
0.0
 13
673.6037313770023
 23
-359.74
 33
0.0
  0
MTEXT
  5
377
330
370
100
AcDbEntity
  8
0
 62
     7
100
AcDbMText
 10
673.6037313770023
 20
-319.7400000000001
 30
0.0
 40
4.236
 41
0.0
 46
0.0
 71
     5
 72
     1
  1
\A1;80 mm
 73
     1
 44
1.0
  0
POINT
  5
378
330
370
100
AcDbEntity
  8
Defpoints
 62
     0
100
AcDbPoint
 10
641.07
 20
-279.7400000000002
 30
0.0
  0
POINT
  5
379
330
370
100
AcDbEntity
  8
Defpoints
 62
     0
100
AcDbPoint
 10
641.07
 20
-359.74
 30
0.0
  0
POINT
  5
37A
330
370
100
AcDbEntity
  8
Defpoints
 62
     0
100
AcDbPoint
 10
673.6037313770023
 20
-359.74
 30
0.0
  0
ENDBLK
  5
37C
330
370
100
AcDbEntity
  8
0
100
AcDbBlockEnd
  0
BLOCK
  5
391
330
387
100
AcDbEntity
  8
0
100
AcDbBlockBegin
  2
*D8
 70
     1
 10
0.0
 20
0.0
 30
0.0
  3
*D8
  1

  0
LINE
  5
388
330
387
100
AcDbEntity
  8
0
  6
ByBlock
 62
     7
370
    -2
100
AcDbLine
 10
221.0553692802064
 20
-488.5
 30
0.0
 11
221.0553692802064
 21
-440.5827423321306
 31
0.0
  0
LINE
  5
389
330
387
100
AcDbEntity
  8
0
  6
ByBlock
 62
     7
370
    -2
100
AcDbLine
 10
640.9781467393229
 20
-488.5
 30
0.0
 11
640.9781467393229
 21
-440.5827423321306
 31
0.0
  0
LINE
  5
38A
330
387
100
AcDbEntity
  8
0
  6
ByBlock
 62
     7
370
    -2
100
AcDbLine
 10
226.0553692802064
 20
-443.5827423321306
 30
0.0
 11
635.9781467393229
 21
-443.5827423321306
 31
0.0
  0
SOLID
  5
38B
330
387
100
AcDbEntity
  8
0
 62
     7
100
AcDbTrace
 10
226.0553692802064
 20
-442.7494089987973
 30
0.0
 11
226.0553692802064
 21
-444.4160756654639
 31
0.0
 12
221.0553692802064
 22
-443.5827423321306
 32
0.0
 13
221.0553692802064
 23
-443.5827423321306
 33
0.0
  0
SOLID
  5
38C
330
387
100
AcDbEntity
  8
0
 62
     7
100
AcDbTrace
 10
635.9781467393229
 20
-444.4160756654639
 30
0.0
 11
635.9781467393229
 21
-442.7494089987973
 31
0.0
 12
640.9781467393229
 22
-443.5827423321306
 32
0.0
 13
640.9781467393229
 23
-443.5827423321306
 33
0.0
  0
MTEXT
  5
38D
330
387
100
AcDbEntity
  8
0
 62
     7
100
AcDbMText
 10
431.0167580097647
 20
-439.9287002900886
 30
0.0
 40
4.236
 41
0.0
 46
0.0
 71
     5
 72
     1
  1
\A1;420 mm
 73
     1
 44
1.0
  0
POINT
  5
38E
330
387
100
AcDbEntity
  8
Defpoints
 62
     0
100
AcDbPoint
 10
221.0553692802064
 20
-490.0
 30
0.0
  0
POINT
  5
38F
330
387
100
AcDbEntity
  8
Defpoints
 62
     0
100
AcDbPoint
 10
640.9781467393229
 20
-490.0
 30
0.0
  0
POINT
  5
390
330
387
100
AcDbEntity
  8
Defpoints
 62
     0
100
AcDbPoint
 10
640.9781467393229
 20
-443.5827423321306
 30
0.0
  0
ENDBLK
  5
392
330
387
100
AcDbEntity
  8
0
100
AcDbBlockEnd
  0
BLOCK
  5
3DB
330
3D0
100
AcDbEntity
  8
0
100
AcDbBlockBegin
  2
*D9
 70
     1
 10
0.0
 20
0.0
 30
0.0
  3
*D9
  1

  0
LINE
  5
3D1
330
3D0
100
AcDbEntity
  8
0
  6
ByBlock
 62
     7
370
    -2
100
AcDbLine
 10
41.50499069107133
 20
42.59371013201867
 30
0.0
 11
32.87044774967809
 21
42.57329750404073
 31
0.0
  0
LINE
  5
3D2
330
3D0
100
AcDbEntity
  8
0
  6
ByBlock
 62
     7
370
    -2
100
AcDbLine
 10
41.58990234057612
 20
6.676076955833601
 30
0.0
 11
32.95535939918288
 21
6.65566432785566
 31
0.0
  0
LINE
  5
3D3
330
3D0
100
AcDbEntity
  8
0
  6
ByBlock
 62
     7
370
    -2
100
AcDbLine
 10
35.8822596626521
 20
37.58040365369023
 30
0.0
 11
35.90573200077841
 21
27.6516031236681
 31
0.0
  0
LINE
  5
3D4
330
3D0
100
AcDbEntity
  8
0
  6
ByBlock
 62
     7
370
    -2
100
AcDbLine
 10
35.94353071985732
 20
11.6627425335859
 30
0.0
 11
35.92005838173101
 21
21.59154306360804
 31
0.0
  0
SOLID
  5
3D5
330
3D0
100
AcDbEntity
  8
0
 62
     7
100
AcDbTrace
 10
36.7155906673255
 20
37.58237370304852
 30
0.0
 11
35.04892865797871
 21
37.57843360433193
 31
0.0
 12
35.87043936650232
 22
42.5803896817306
 32
0.0
 13
35.87043936650232
 23
42.5803896817306
 33
0.0
  0
SOLID
  5
3D6
330
3D0
100
AcDbEntity
  8
0
 62
     7
100
AcDbTrace
 10
35.11019971518392
 20
11.66077248422761
 30
0.0
 11
36.77686172453072
 21
11.6647125829442
 31
0.0
 12
35.95535101600711
 22
6.66275650554553
 32
0.0
 13
35.95535101600711
 23
6.66275650554553
 33
0.0
  0
MTEXT
  5
3D7
330
3D0
100
AcDbEntity
  8
0
 62
     7
100
AcDbMText
 10
35.91289519125471
 20
24.62157309363807
 30
0.0
 40
3.0
 41
0.0
 46
0.0
 71
     5
 72
     1
  1
\A1;35.92 mm
 73
     1
 44
1.0
  0
POINT
  5
3D8
330
3D0
100
AcDbEntity
  8
Defpoints
 62
     0
100
AcDbPoint
 10
43.00498649948344
 20
42.59725622086361
 30
0.0
  0
POINT
  5
3D9
330
3D0
100
AcDbEntity
  8
Defpoints
 62
     0
100
AcDbPoint
 10
43.08989814898823
 20
6.679623044678536
 30
0.0
  0
POINT
  5
3DA
330
3D0
100
AcDbEntity
  8
Defpoints
 62
     0
100
AcDbPoint
 10
35.95535101600711
 20
6.66275650554553
 30
0.0
  0
ENDBLK
  5
3DC
330
3D0
100
AcDbEntity
  8
0
100
AcDbBlockEnd
  0
BLOCK
  5
3ED
330
3E1
100
AcDbEntity
  8
0
100
AcDbBlockBegin
  2
*D10
 70
     1
 10
0.0
 20
0.0
 30
0.0
  3
*D10
  1

  0
ARC
  5
3E2
330
3E1
100
AcDbEntity
  8
0
  6
ByBlock
 62
     7
370
    -2
100
AcDbCircle
 10
221.0109832558099
 20
6.444523574460767
 30
0.0
 40
80.91589393046198
100
AcDbArc
 50
166.9179675073397
 51
170.4589837536699
  0
ARC
  5
3E3
330
3E1
100
AcDbEntity
  8
0
  6
ByBlock
 62
     7
370
    -2
100
AcDbCircle
 10
221.0109832558099
 20
6.444523574460767
 30
0.0
 40
80.91589393046198
100
AcDbArc
 50
183.5410162463302
 51
187.0820324926604
  0
ARC
  5
3E4
330
3E1
100
AcDbEntity
  8
0
  6
ByBlock
 62
     7
370
    -2
100
AcDbCircle
 10
221.0109832558099
 20
6.444523574460767
 30
0.0
 40
80.91589393046198
100
AcDbArc
 50
174.0
 51
180.0
  0
SOLID
  5
3E5
330
3E1
100
AcDbEntity
  8
0
 62
     7
100
AcDbTrace
 10
140.3887016860083
 20
19.96929677374173
 30
0.0
 11
142.0400642962498
 21
19.74395412958829
 31
0.0
 12
140.5383550586687
 22
14.90253762094043
 32
0.0
 13
140.5383550586687
 23
14.90253762094043
 33
0.0
  0
SOLID
  5
3E6
330
3E1
100
AcDbEntity
  8
0
 62
     7
100
AcDbTrace
 10
141.0825062149115
 20
1.472657493133866
 30
0.0
 11
139.4166352215318
 21
1.421163695509293
 31
0.0
 12
140.0950893253479
 22
6.444523574460777
 32
0.0
 13
140.0950893253479
 23
6.444523574460777
 33
0.0
  0
MTEXT
  5
3E7
330
3E1
100
AcDbEntity
  8
0
 62
     7
100
AcDbMText
 10
140.2059817457823
 20
10.67933425856412
 30
0.0
 40
3.0
 41
0.0
 46
0.0
 71
     5
 72
     1
  1
\A1;6.00%%d
 73
     1
 44
1.0
  0
POINT
  5
3E8
330
3E1
100
AcDbEntity
  8
Defpoints
 62
     0
100
AcDbPoint
 10
140.2921963761439
 20
12.08893100490355
 30
0.0
  0
POINT
  5
3E9
330
3E1
100
AcDbEntity
  8
Defpoints
 62
     0
100
AcDbPoint
 10
221.0109832558098
 20
6.444523574460774
 30
0.0
  0
POINT
  5
3EA
330
3E1
100
AcDbEntity
  8
Defpoints
 62
     0
100
AcDbPoint
 10
221.0109832558098
 20
6.444523574460767
 30
0.0
  0
POINT
  5
3EB
330
3E1
100
AcDbEntity
  8
Defpoints
 62
     0
100
AcDbPoint
 10
-78.9890167441902
 20
6.444523574460803
 30
0.0
  0
POINT
  5
3EC
330
3E1
100
AcDbEntity
  8
Defpoints
 62
     0
100
AcDbPoint
 10
51.94226104320339
 20
24.2143623299619
 30
0.0
  0
ENDBLK
  5
3EE
330
3E1
100
AcDbEntity
  8
0
100
AcDbBlockEnd
  0
ENDSEC
  0
SECTION
  2
ENTITIES
  0
LINE
  5
4F
102
{ACAD_XDICTIONARY
360
4D
102
}
330
1F
100
AcDbEntity
  8
0
  6
Continuous
 62
     7
370
     0
100
AcDbLine
 10
-13.34743779241686
 20
31.2349463455509
 30
0.0
 11
-13.34743779241686
 21
31.2349463455509
 31
0.0
  0
LINE
  5
52
102
{ACAD_XDICTIONARY
360
50
102
}
330
1F
100
AcDbEntity
  8
0
  6
Continuous
 62
     7
370
     0
100
AcDbLine
 10
337.7446474739899
 20
-54.04875916969679
 30
0.0
 11
327.7446474739899
 21
-54.04875916969679
 31
0.0
  0
LINE
  5
55
102
{ACAD_XDICTIONARY
360
53
102
}
330
1F
100
AcDbEntity
  8
0
  6
Continuous
 62
     7
370
     0
100
AcDbLine
 10
337.7446474739899
 20
-60.04875916969679
 30
0.0
 11
327.7446474739899
 21
-60.04875916969679
 31
0.0
  0
LINE
  5
58
102
{ACAD_XDICTIONARY
360
56
102
}
330
1F
100
AcDbEntity
  8
0
  6
Continuous
 62
     7
370
     0
100
AcDbLine
 10
337.7446474739899
 20
-79.05331442581749
 30
0.0
 11
337.7446474739899
 21
-30.04875916969679
 31
0.0
  0
LINE
  5
5B
102
{ACAD_XDICTIONARY
360
59
102
}
330
1F
100
AcDbEntity
  8
0
  6
Continuous
 62
     7
370
     0
100
AcDbLine
 10
337.7446474739899
 20
-79.04875916969678
 30
0.0
 11
368.74464747399
 21
-79.04875916969678
 31
0.0
  0
LINE
  5
5E
102
{ACAD_XDICTIONARY
360
5C
102
}
330
1F
100
AcDbEntity
  8
0
  6
Continuous
 62
     7
370
     0
100
AcDbLine
 10
368.7524023148695
 20
-77.64039289511993
 30
0.0
 11
378.7446474739916
 21
-67.0487591696972
 31
0.0
  0
LINE
  5
61
102
{ACAD_XDICTIONARY
360
5F
102
}
330
1F
100
AcDbEntity
  8
0
  6
Continuous
 62
     7
370
     0
100
AcDbLine
 10
337.7446474739899
 20
-30.04875916969679
 30
0.0
 11
358.7446474739899
 21
-30.04875916969679
 31
0.0
  0
LINE
  5
64
102
{ACAD_XDICTIONARY
360
62
102
}
330
1F
100
AcDbEntity
  8
0
  6
Continuous
 62
     7
370
     0
100
AcDbLine
 10
358.7446474739899
 20
-30.04875916969679
 30
0.0
 11
368.7446474739899
 21
-46.04875916969679
 31
0.0
  0
LINE
  5
67
102
{ACAD_XDICTIONARY
360
65
102
}
330
1F
100
AcDbEntity
  8
0
  6
Continuous
 62
     7
370
     0
100
AcDbLine
 10
378.7446474739899
 20
-52.04875916969679
 30
0.0
 11
378.7446474739899
 21
-67.04875916969675
 31
0.0
  0
LINE
  5
6A
102
{ACAD_XDICTIONARY
360
68
102
}
330
1F
100
AcDbEntity
  8
0
  6
Continuous
 62
     7
370
     0
100
AcDbLine
 10
378.74464747399
 20
-52.04875916969679
 30
0.0
 11
368.7446474739899
 21
-46.04875916969679
 31
0.0
  0
LINE
  5
6D
102
{ACAD_XDICTIONARY
360
6B
102
}
330
1F
100
AcDbEntity
  8
0
  6
Continuous
 62
     7
370
     0
100
AcDbLine
 10
338.7446474739899
 20
-30.0487591696968
 30
0.0
 11
338.7446474739899
 21
-77.58940694535613
 31
0.0
  0
LINE
  5
70
102
{ACAD_XDICTIONARY
360
6E
102
}
330
1F
100
AcDbEntity
  8
0
  6
DASHDOT
 62
     7
370
     0
100
AcDbLine
 10
348.7446474739899
 20
-30.04875916969679
 30
0.0
 11
348.7446474739899
 21
-77.47679867762832
 31
0.0
  0
LINE
  5
73
102
{ACAD_XDICTIONARY
360
71
102
}
330
1F
100
AcDbEntity
  8
0
  6
DASHDOT
 62
     7
370
     0
100
AcDbLine
 10
358.7446474739899
 20
-30.04875916969679
 30
0.0
 11
358.7446474739899
 21
-77.42049454376445
 31
0.0
  0
LINE
  5
76
102
{ACAD_XDICTIONARY
360
74
102
}
330
1F
100
AcDbEntity
  8
0
  6
DASHDOT
 62
     7
370
     0
100
AcDbLine
 10
368.7446474739899
 20
-46.04875916969677
 30
0.0
 11
368.7446474739899
 21
-77.04875916969678
 31
0.0
  0
LINE
  5
79
102
{ACAD_XDICTIONARY
360
77
102
}
330
1F
100
AcDbEntity
  8
0
  6
Continuous
 62
     7
370
     0
100
AcDbLine
 10
337.7710526583921
 20
-77.54875916969678
 30
0.0
 11
368.7383262835361
 21
-77.54875916969678
 31
0.0
  0
LINE
  5
7C
102
{ACAD_XDICTIONARY
360
7A
102
}
330
1F
100
AcDbEntity
  8
0
  6
Continuous
 62
     7
370
     0
100
AcDbLine
 10
368.7446474739899
 20
-79.04875916969678
 30
0.0
 11
368.7446474739899
 21
-77.58408876125603
 31
0.0
  0
MTEXT
  5
A1
102
{ACAD_XDICTIONARY
360
7D
102
}
330
1F
100
AcDbEntity
  8
0
  6
Continuous
 62
     7
100
AcDbMText
 10
384.7596815340616
 20
-38.62293728333104
 30
0.0
 40
2.964000034332275
 41
0.0
 46
0.0
 71
     1
 72
     1
  1
{Patin : 1 épaisseur de ctp 1 mm coté bras,4 épaisseurs\Pde balsa 10 mm.\PSemelle : ctp 1mm + plaque fibre.\P}
 73
     1
 44
1.0
  0
LINE
  5
A4
102
{ACAD_XDICTIONARY
360
A2
102
}
330
1F
100
AcDbEntity
  8
0
  6
Continuous
 62
     7
370
     0
100
AcDbLine
 10
65.71612908113437
 20
19.67249279831671
 30
0.0
 11
65.71612908113437
 21
19.8724927983167
 31
0.0
  0
LINE
  5
A7
102
{ACAD_XDICTIONARY
360
A5
102
}
330
1F
100
AcDbEntity
  8
0
  6
Continuous
 62
     7
370
     0
100
AcDbLine
 10
111.7161290811344
 20
19.67249279831671
 30
0.0
 11
111.7161290811344
 21
19.67249279831671
 31
0.0
  0
DIMENSION
  5
AA
102
{ACAD_REACTORS
330
AB
102
}
102
{ACAD_XDICTIONARY
360
A8
102
}
330
1F
100
AcDbEntity
  8
0
  6
Continuous
 62
     7
100
AcDbDimension
  2
*D1
 10
232.4712510192933
 20
21.6530660562573
 30
0.0
 11
222.1637594144207
 21
29.68231682415549
 31
0.0
 70
    33
  1
<>
 71
     5
 42
15.0038471584072
 73
     0
 74
     0
 75
     0
  3
Standard
100
AcDbAlignedDimension
 13
221.0109832558098
 23
6.444523574460774
 33
0.0
 14
220.7460981792794
 24
21.44603234688348
 34
0.0
1001
ACAD
1000
DSTYLE
1002
{
1070
   285
1070
     1
1070
     4
1000

1070
    41
1040
5.0
1070
   176
1070
     7
1070
   177
1070
     7
1070
   178
1070
     7
1070
    43
1040
10.0
1070
    44
1040
3.0
1070
    42
1040
1.5
1070
   147
1040
1.5
1070
   272
1070
     4
1070
    74
1070
     1
1070
   140
1040
3.0
1070
    78
1070
     0
1070
    70
1070
     7
1002
}
  0
POLYLINE
  5
BB
330
1F
100
AcDbEntity
  8
0
  6
Continuous
 62
     7
370
     0
100
AcDb2dPolyline
 66
     1
 10
0.0
 20
0.0
 30
0.0
 70
   132
 75
     6
  0
VERTEX
  5
BC
330
BB
100
AcDbEntity
  8
0
  6
Continuous
 62
     7
100
AcDbVertex
100
AcDb2dVertex
 10
242.5010800407704
 20
73.2093049858234
 30
0.0
 70
    16
  0
VERTEX
  5
BD
330
BB
100
AcDbEntity
  8
0
  6
Continuous
 62
     7
100
AcDbVertex
100
AcDb2dVertex
 10
277.5786882200861
 20
73.69459435663818
 30
0.0
 70
    16
  0
VERTEX
  5
BE
330
BB
100
AcDbEntity
  8
0
  6
Continuous
 62
     7
100
AcDbVertex
100
AcDb2dVertex
 10
372.0285851129452
 20
73.42999455704425
 30
0.0
 70
    16
  0
VERTEX
  5
BF
330
BB
100
AcDbEntity
  8
0
  6
Continuous
 62
     7
100
AcDbVertex
100
AcDb2dVertex
 10
479.7161290811343
 20
69.1224927983167
 30
0.0
 70
    16
  0
VERTEX
  5
C0
330
BB
100
AcDbEntity
  8
0
  6
Continuous
 62
     7
100
AcDbVertex
100
AcDb2dVertex
 10
640.7161290811341
 20
62.22249279831669
 30
0.0
 70
    16
  0
VERTEX
  5
C1
330
BB
100
AcDbEntity
  8
0
  6
Continuous
 62
     7
100
AcDbVertex
100
AcDb2dVertex
 10
640.7161290811341
 20
62.22249279831669
 30
0.0
 70
    16
  0
VERTEX
  5
C2
330
BB
100
AcDbEntity
  8
0
  6
Continuous
 62
     7
100
AcDbVertex
100
AcDb2dVertex
 10
242.5010800407704
 20
73.2093049858234
 30
0.0
 70
     8
  0
VERTEX
  5
C3
330
BB
100
AcDbEntity
  8
0
  6
Continuous
 62
     7
100
AcDbVertex
100
AcDb2dVertex
 10
247.8149585193265
 20
73.27758378772016
 30
0.0
 70
     8
  0
VERTEX
  5
C4
330
BB
100
AcDbEntity
  8
0
  6
Continuous
 62
     7
100
AcDbVertex
100
AcDb2dVertex
 10
253.2272171102383
 20
73.33688416875736
 30
0.0
 70
     8
  0
VERTEX
  5
C5
330
BB
100
AcDbEntity
  8
0
  6
Continuous
 62
     7
100
AcDbVertex
100
AcDb2dVertex
 10
258.7287142270627
 20
73.38728230882201
 30
0.0
 70
     8
  0
VERTEX
  5
C6
330
BB
100
AcDbEntity
  8
0
  6
Continuous
 62
     7
100
AcDbVertex
100
AcDb2dVertex
 10
264.3103082833567
 20
73.42885438780117
 30
0.0
 70
     8
  0
VERTEX
  5
C7
330
BB
100
AcDbEntity
  8
0
  6
Continuous
 62
     7
100
AcDbVertex
100
AcDb2dVertex
 10
269.9628576926775
 20
73.46167658558184
 30
0.0
 70
     8
  0
VERTEX
  5
C8
330
BB
100
AcDbEntity
  8
0
  6
Continuous
 62
     7
100
AcDbVertex
100
AcDb2dVertex
 10
275.677220868582
 20
73.48582508205104
 30
0.0
 70
     8
  0
VERTEX
  5
C9
330
BB
100
AcDbEntity
  8
0
  6
Continuous
 62
     7
100
AcDbVertex
100
AcDb2dVertex
 10
281.4442562246272
 20
73.5013760570958
 30
0.0
 70
     8
  0
VERTEX
  5
CA
330
BB
100
AcDbEntity
  8
0
  6
Continuous
 62
     7
100
AcDbVertex
100
AcDb2dVertex
 10
287.2548221743701
 20
73.50840569060313
 30
0.0
 70
     8
  0
VERTEX
  5
CB
330
BB
100
AcDbEntity
  8
0
  6
Continuous
 62
     7
100
AcDbVertex
100
AcDb2dVertex
 10
293.0997771313678
 20
73.50699016246008
 30
0.0
 70
     8
  0
VERTEX
  5
CC
330
BB
100
AcDbEntity
  8
0
  6
Continuous
 62
     7
100
AcDbVertex
100
AcDb2dVertex
 10
298.9699795091774
 20
73.49720565255369
 30
0.0
 70
     8
  0
VERTEX
  5
CD
330
BB
100
AcDbEntity
  8
0
  6
Continuous
 62
     7
100
AcDbVertex
100
AcDb2dVertex
 10
304.8562877213558
 20
73.47912834077094
 30
0.0
 70
     8
  0
VERTEX
  5
CE
330
BB
100
AcDbEntity
  8
0
  6
Continuous
 62
     7
100
AcDbVertex
100
AcDb2dVertex
 10
310.74956018146
 20
73.45283440699889
 30
0.0
 70
     8
  0
VERTEX
  5
CF
330
BB
100
AcDbEntity
  8
0
  6
Continuous
 62
     7
100
AcDbVertex
100
AcDb2dVertex
 10
316.6406553030471
 20
73.41840003112453
 30
0.0
 70
     8
  0
VERTEX
  5
D0
330
BB
100
AcDbEntity
  8
0
  6
Continuous
 62
     7
100
AcDbVertex
100
AcDb2dVertex
 10
322.5204314996741
 20
73.37590139303492
 30
0.0
 70
     8
  0
VERTEX
  5
D1
330
BB
100
AcDbEntity
  8
0
  6
Continuous
 62
     7
100
AcDbVertex
100
AcDb2dVertex
 10
328.3797471848981
 20
73.32541467261707
 30
0.0
 70
     8
  0
VERTEX
  5
D2
330
BB
100
AcDbEntity
  8
0
  6
Continuous
 62
     7
100
AcDbVertex
100
AcDb2dVertex
 10
334.209460772276
 20
73.267016049758
 30
0.0
 70
     8
  0
VERTEX
  5
D3
330
BB
100
AcDbEntity
  8
0
  6
Continuous
 62
     7
100
AcDbVertex
100
AcDb2dVertex
 10
340.0004306753649
 20
73.20078170434475
 30
0.0
 70
     8
  0
VERTEX
  5
D4
330
BB
100
AcDbEntity
  8
0
  6
Continuous
 62
     7
100
AcDbVertex
100
AcDb2dVertex
 10
345.7435153077219
 20
73.12678781626431
 30
0.0
 70
     8
  0
VERTEX
  5
D5
330
BB
100
AcDbEntity
  8
0
  6
Continuous
 62
     7
100
AcDbVertex
100
AcDb2dVertex
 10
351.4295730829038
 20
73.04511056540375
 30
0.0
 70
     8
  0
VERTEX
  5
D6
330
BB
100
AcDbEntity
  8
0
  6
Continuous
 62
     7
100
AcDbVertex
100
AcDb2dVertex
 10
357.0494624144677
 20
72.95582613165006
 30
0.0
 70
     8
  0
VERTEX
  5
D7
330
BB
100
AcDbEntity
  8
0
  6
Continuous
 62
     7
100
AcDbVertex
100
AcDb2dVertex
 10
363.8955561644677
 20
72.83505217331668
 30
0.0
 70
     8
  0
VERTEX
  5
D8
330
BB
100
AcDbEntity
  8
0
  6
Continuous
 62
     7
100
AcDbVertex
100
AcDb2dVertex
 10
370.6482124144677
 20
72.70263446498335
 30
0.0
 70
     8
  0
VERTEX
  5
D9
330
BB
100
AcDbEntity
  8
0
  6
Continuous
 62
     7
100
AcDbVertex
100
AcDb2dVertex
 10
377.3289936644677
 20
72.55842925665002
 30
0.0
 70
     8
  0
VERTEX
  5
DA
330
BB
100
AcDbEntity
  8
0
  6
Continuous
 62
     7
100
AcDbVertex
100
AcDb2dVertex
 10
383.9594624144677
 20
72.4022927983167
 30
0.0
 70
     8
  0
VERTEX
  5
DB
330
BB
100
AcDbEntity
  8
0
  6
Continuous
 62
     7
100
AcDbVertex
100
AcDb2dVertex
 10
390.5611811644677
 20
72.23408133998335
 30
0.0
 70
     8
  0
VERTEX
  5
DC
330
BB
100
AcDbEntity
  8
0
  6
Continuous
 62
     7
100
AcDbVertex
100
AcDb2dVertex
 10
397.1557124144677
 20
72.05365113165003
 30
0.0
 70
     8
  0
VERTEX
  5
DD
330
BB
100
AcDbEntity
  8
0
  6
Continuous
 62
     7
100
AcDbVertex
100
AcDb2dVertex
 10
403.7646186644677
 20
71.86085842331669
 30
0.0
 70
     8
  0
VERTEX
  5
DE
330
BB
100
AcDbEntity
  8
0
  6
Continuous
 62
     7
100
AcDbVertex
100
AcDb2dVertex
 10
410.4094624144678
 20
71.65555946498336
 30
0.0
 70
     8
  0
VERTEX
  5
DF
330
BB
100
AcDbEntity
  8
0
  6
Continuous
 62
     7
100
AcDbVertex
100
AcDb2dVertex
 10
417.1118061644677
 20
71.43761050665002
 30
0.0
 70
     8
  0
VERTEX
  5
E0
330
BB
100
AcDbEntity
  8
0
  6
Continuous
 62
     7
100
AcDbVertex
100
AcDb2dVertex
 10
423.8932124144678
 20
71.2068677983167
 30
0.0
 70
     8
  0
VERTEX
  5
E1
330
BB
100
AcDbEntity
  8
0
  6
Continuous
 62
     7
100
AcDbVertex
100
AcDb2dVertex
 10
430.7752436644677
 20
70.96318758998335
 30
0.0
 70
     8
  0
VERTEX
  5
E2
330
BB
100
AcDbEntity
  8
0
  6
Continuous
 62
     7
100
AcDbVertex
100
AcDb2dVertex
 10
437.7794624144678
 20
70.70642613165003
 30
0.0
 70
     8
  0
VERTEX
  5
E3
330
BB
100
AcDbEntity
  8
0
  6
Continuous
 62
     7
100
AcDbVertex
100
AcDb2dVertex
 10
444.9274311644677
 20
70.4364396733167
 30
0.0
 70
     8
  0
VERTEX
  5
E4
330
BB
100
AcDbEntity
  8
0
  6
Continuous
 62
     7
100
AcDbVertex
100
AcDb2dVertex
 10
452.2407124144677
 20
70.15308446498335
 30
0.0
 70
     8
  0
VERTEX
  5
E5
330
BB
100
AcDbEntity
  8
0
  6
Continuous
 62
     7
100
AcDbVertex
100
AcDb2dVertex
 10
459.7408686644677
 20
69.85621675665001
 30
0.0
 70
     8
  0
VERTEX
  5
E6
330
BB
100
AcDbEntity
  8
0
  6
Continuous
 62
     7
100
AcDbVertex
100
AcDb2dVertex
 10
467.4494624144676
 20
69.5456927983167
 30
0.0
 70
     8
  0
VERTEX
  5
E7
330
BB
100
AcDbEntity
  8
0
  6
Continuous
 62
     7
100
AcDbVertex
100
AcDb2dVertex
 10
475.3880561644677
 20
69.22136883998334
 30
0.0
 70
     8
  0
VERTEX
  5
E8
330
BB
100
AcDbEntity
  8
0
  6
Continuous
 62
     7
100
AcDbVertex
100
AcDb2dVertex
 10
483.5782124144677
 20
68.88310113165002
 30
0.0
 70
     8
  0
VERTEX
  5
E9
330
BB
100
AcDbEntity
  8
0
  6
Continuous
 62
     7
100
AcDbVertex
100
AcDb2dVertex
 10
492.0414936644677
 20
68.53074592331669
 30
0.0
 70
     8
  0
VERTEX
  5
EA
330
BB
100
AcDbEntity
  8
0
  6
Continuous
 62
     7
100
AcDbVertex
100
AcDb2dVertex
 10
500.7994624144675
 20
68.16415946498333
 30
0.0
 70
     8
  0
VERTEX
  5
EB
330
BB
100
AcDbEntity
  8
0
  6
Continuous
 62
     7
100
AcDbVertex
100
AcDb2dVertex
 10
509.857389497801
 20
67.78377300665004
 30
0.0
 70
     8
  0
VERTEX
  5
EC
330
BB
100
AcDbEntity
  8
0
  6
Continuous
 62
     7
100
AcDbVertex
100
AcDb2dVertex
 10
519.1553790811344
 20
67.3923177983167
 30
0.0
 70
     8
  0
VERTEX
  5
ED
330
BB
100
AcDbEntity
  8
0
  6
Continuous
 62
     7
100
AcDbVertex
100
AcDb2dVertex
 10
528.6172436644677
 20
66.99310008998336
 30
0.0
 70
     8
  0
VERTEX
  5
EE
330
BB
100
AcDbEntity
  8
0
  6
Continuous
 62
     7
100
AcDbVertex
100
AcDb2dVertex
 10
538.166795747801
 20
66.58942613165004
 30
0.0
 70
     8
  0
VERTEX
  5
EF
330
BB
100
AcDbEntity
  8
0
  6
Continuous
 62
     7
100
AcDbVertex
100
AcDb2dVertex
 10
547.7278478311343
 20
66.1846021733167
 30
0.0
 70
     8
  0
VERTEX
  5
F0
330
BB
100
AcDbEntity
  8
0
  6
Continuous
 62
     7
100
AcDbVertex
100
AcDb2dVertex
 10
557.2242124144676
 20
65.78193446498335
 30
0.0
 70
     8
  0
VERTEX
  5
F1
330
BB
100
AcDbEntity
  8
0
  6
Continuous
 62
     7
100
AcDbVertex
100
AcDb2dVertex
 10
566.579701997801
 20
65.38472925665003
 30
0.0
 70
     8
  0
VERTEX
  5
F2
330
BB
100
AcDbEntity
  8
0
  6
Continuous
 62
     7
100
AcDbVertex
100
AcDb2dVertex
 10
575.7181290811343
 20
64.9962927983167
 30
0.0
 70
     8
  0
VERTEX
  5
F3
330
BB
100
AcDbEntity
  8
0
  6
Continuous
 62
     7
100
AcDbVertex
100
AcDb2dVertex
 10
584.5633061644676
 20
64.61993133998335
 30
0.0
 70
     8
  0
VERTEX
  5
F4
330
BB
100
AcDbEntity
  8
0
  6
Continuous
 62
     7
100
AcDbVertex
100
AcDb2dVertex
 10
593.039045747801
 20
64.25895113165002
 30
0.0
 70
     8
  0
VERTEX
  5
F5
330
BB
100
AcDbEntity
  8
0
  6
Continuous
 62
     7
100
AcDbVertex
100
AcDb2dVertex
 10
601.0691603311344
 20
63.91665842331669
 30
0.0
 70
     8
  0
VERTEX
  5
F6
330
BB
100
AcDbEntity
  8
0
  6
Continuous
 62
     7
100
AcDbVertex
100
AcDb2dVertex
 10
608.5774624144675
 20
63.59635946498335
 30
0.0
 70
     8
  0
VERTEX
  5
F7
330
BB
100
AcDbEntity
  8
0
  6
Continuous
 62
     7
100
AcDbVertex
100
AcDb2dVertex
 10
615.4877644978009
 20
63.30136050665002
 30
0.0
 70
     8
  0
VERTEX
  5
F8
330
BB
100
AcDbEntity
  8
0
  6
Continuous
 62
     7
100
AcDbVertex
100
AcDb2dVertex
 10
621.7238790811343
 20
63.03496779831669
 30
0.0
 70
     8
  0
VERTEX
  5
F9
330
BB
100
AcDbEntity
  8
0
  6
Continuous
 62
     7
100
AcDbVertex
100
AcDb2dVertex
 10
627.2096186644676
 20
62.80048758998336
 30
0.0
 70
     8
  0
VERTEX
  5
FA
330
BB
100
AcDbEntity
  8
0
  6
Continuous
 62
     7
100
AcDbVertex
100
AcDb2dVertex
 10
631.868795747801
 20
62.60122613165002
 30
0.0
 70
     8
  0
VERTEX
  5
FB
330
BB
100
AcDbEntity
  8
0
  6
Continuous
 62
     7
100
AcDbVertex
100
AcDb2dVertex
 10
635.6252228311344
 20
62.44048967331669
 30
0.0
 70
     8
  0
VERTEX
  5
FC
330
BB
100
AcDbEntity
  8
0
  6
Continuous
 62
     7
100
AcDbVertex
100
AcDb2dVertex
 10
638.4027124144675
 20
62.32158446498335
 30
0.0
 70
     8
  0
VERTEX
  5
FD
330
BB
100
AcDbEntity
  8
0
  6
Continuous
 62
     7
100
AcDbVertex
100
AcDb2dVertex
 10
640.125076997801
 20
62.24781675665002
 30
0.0
 70
     8
  0
VERTEX
  5
FE
330
BB
100
AcDbEntity
  8
0
  6
Continuous
 62
     7
100
AcDbVertex
100
AcDb2dVertex
 10
640.7161290811342
 20
62.22249279831669
 30
0.0
 70
     8
  0
SEQEND
  5
FF
330
BB
100
AcDbEntity
  8
0
  6
Continuous
 62
     7
370
     0
  0
POLYLINE
  5
100
330
1F
100
AcDbEntity
  8
0
  6
Continuous
 62
     7
370
     0
100
AcDb2dPolyline
 66
     1
 10
0.0
 20
0.0
 30
0.0
 70
   132
 75
     6
  0
VERTEX
  5
101
330
100
100
AcDbEntity
  8
0
  6
Continuous
 62
     7
100
AcDbVertex
100
AcDb2dVertex
 10
43.00498649948344
 20
42.59725622086361
 30
0.0
 70
    16
  0
VERTEX
  5
102
330
100
100
AcDbEntity
  8
0
  6
Continuous
 62
     7
100
AcDbVertex
100
AcDb2dVertex
 10
65.98276669807198
 20
35.5239510509322
 30
0.0
 70
    16
  0
VERTEX
  5
103
330
100
100
AcDbEntity
  8
0
  6
Continuous
 62
     7
100
AcDbVertex
100
AcDb2dVertex
 10
88.96054689666052
 20
31.35251466866497
 30
0.0
 70
    16
  0
VERTEX
  5
104
330
100
100
AcDbEntity
  8
0
  6
Continuous
 62
     7
100
AcDbVertex
100
AcDb2dVertex
 10
111.938327095249
 20
27.18107828639774
 30
0.0
 70
    16
  0
VERTEX
  5
105
330
100
100
AcDbEntity
  8
0
  6
Continuous
 62
     7
100
AcDbVertex
100
AcDb2dVertex
 10
157.8938874924262
 20
23.84392918058395
 30
0.0
 70
    16
  0
VERTEX
  5
106
330
100
100
AcDbEntity
  8
0
  6
Continuous
 62
     7
100
AcDbVertex
100
AcDb2dVertex
 10
249.8050082867802
 20
21.4136140709152
 30
0.0
 70
    16
  0
VERTEX
  5
107
330
100
100
AcDbEntity
  8
0
  6
Continuous
 62
     7
100
AcDbVertex
100
AcDb2dVertex
 10
341.7161290811343
 20
19.67249279831672
 30
0.0
 70
    16
  0
VERTEX
  5
108
330
100
100
AcDbEntity
  8
0
  6
Continuous
 62
     7
100
AcDbVertex
100
AcDb2dVertex
 10
43.00498649948344
 20
42.59725622086361
 30
0.0
 70
     8
  0
VERTEX
  5
109
330
100
100
AcDbEntity
  8
0
  6
Continuous
 62
     7
100
AcDbVertex
100
AcDb2dVertex
 10
46.36668361291236
 20
41.57308735180484
 30
0.0
 70
     8
  0
VERTEX
  5
10A
330
100
100
AcDbEntity
  8
0
  6
Continuous
 62
     7
100
AcDbVertex
100
AcDb2dVertex
 10
49.56322793116393
 20
40.62025231196784
 30
0.0
 70
     8
  0
VERTEX
  5
10B
330
100
100
AcDbEntity
  8
0
  6
Continuous
 62
     7
100
AcDbVertex
100
AcDb2dVertex
 10
52.60180001055019
 20
39.7352711258924
 30
0.0
 70
     8
  0
VERTEX
  5
10C
330
100
100
AcDbEntity
  8
0
  6
Continuous
 62
     7
100
AcDbVertex
100
AcDb2dVertex
 10
55.48958040738322
 20
38.91466381811829
 30
0.0
 70
     8
  0
VERTEX
  5
10D
330
100
100
AcDbEntity
  8
0
  6
Continuous
 62
     7
100
AcDbVertex
100
AcDb2dVertex
 10
58.23374967797508
 20
38.15495041318533
 30
0.0
 70
     8
  0
VERTEX
  5
10E
330
100
100
AcDbEntity
  8
0
  6
Continuous
 62
     7
100
AcDbVertex
100
AcDb2dVertex
 10
60.84148837863781
 20
37.4526509356333
 30
0.0
 70
     8
  0
VERTEX
  5
10F
330
100
100
AcDbEntity
  8
0
  6
Continuous
 62
     7
100
AcDbVertex
100
AcDb2dVertex
 10
63.31997706568349
 20
36.804285410002
 30
0.0
 70
     8
  0
VERTEX
  5
110
330
100
100
AcDbEntity
  8
0
  6
Continuous
 62
     7
100
AcDbVertex
100
AcDb2dVertex
 10
65.67639629542415
 20
36.20637386083123
 30
0.0
 70
     8
  0
VERTEX
  5
111
330
100
100
AcDbEntity
  8
0
  6
Continuous
 62
     7
100
AcDbVertex
100
AcDb2dVertex
 10
67.91792662417187
 20
35.65543631266075
 30
0.0
 70
     8
  0
VERTEX
  5
112
330
100
100
AcDbEntity
  8
0
  6
Continuous
 62
     7
100
AcDbVertex
100
AcDb2dVertex
 10
70.05174860823873
 20
35.1479927900304
 30
0.0
 70
     8
  0
VERTEX
  5
113
330
100
100
AcDbEntity
  8
0
  6
Continuous
 62
     7
100
AcDbVertex
100
AcDb2dVertex
 10
72.08504280393674
 20
34.68056331747994
 30
0.0
 70
     8
  0
VERTEX
  5
114
330
100
100
AcDbEntity
  8
0
  6
Continuous
 62
     7
100
AcDbVertex
100
AcDb2dVertex
 10
74.02498976757799
 20
34.24966791954918
 30
0.0
 70
     8
  0
VERTEX
  5
115
330
100
100
AcDbEntity
  8
0
  6
Continuous
 62
     7
100
AcDbVertex
100
AcDb2dVertex
 10
75.87877005547452
 20
33.85182662077791
 30
0.0
 70
     8
  0
VERTEX
  5
116
330
100
100
AcDbEntity
  8
0
  6
Continuous
 62
     7
100
AcDbVertex
100
AcDb2dVertex
 10
77.65356422393843
 20
33.48355944570591
 30
0.0
 70
     8
  0
VERTEX
  5
117
330
100
100
AcDbEntity
  8
0
  6
Continuous
 62
     7
100
AcDbVertex
100
AcDb2dVertex
 10
79.35655282928174
 20
33.14138641887298
 30
0.0
 70
     8
  0
VERTEX
  5
118
330
100
100
AcDbEntity
  8
0
  6
Continuous
 62
     7
100
AcDbVertex
100
AcDb2dVertex
 10
80.9949164278165
 20
32.82182756481892
 30
0.0
 70
     8
  0
VERTEX
  5
119
330
100
100
AcDbEntity
  8
0
  6
Continuous
 62
     7
100
AcDbVertex
100
AcDb2dVertex
 10
82.57583557585481
 20
32.52140290808354
 30
0.0
 70
     8
  0
VERTEX
  5
11A
330
100
100
AcDbEntity
  8
0
  6
Continuous
 62
     7
100
AcDbVertex
100
AcDb2dVertex
 10
84.1064908297087
 20
32.23663247320659
 30
0.0
 70
     8
  0
VERTEX
  5
11B
330
100
100
AcDbEntity
  8
0
  6
Continuous
 62
     7
100
AcDbVertex
100
AcDb2dVertex
 10
85.59406274569025
 20
31.9640362847279
 30
0.0
 70
     8
  0
VERTEX
  5
11C
330
100
100
AcDbEntity
  8
0
  6
Continuous
 62
     7
100
AcDbVertex
100
AcDb2dVertex
 10
87.0457318801115
 20
31.70013436718725
 30
0.0
 70
     8
  0
VERTEX
  5
11D
330
100
100
AcDbEntity
  8
0
  6
Continuous
 62
     7
100
AcDbVertex
100
AcDb2dVertex
 10
88.46820008553036
 20
31.44200066955706
 30
0.0
 70
     8
  0
VERTEX
  5
11E
330
100
100
AcDbEntity
  8
0
  6
Continuous
 62
     7
100
AcDbVertex
100
AcDb2dVertex
 10
89.86625439948821
 20
31.18892483854039
 30
0.0
 70
     8
  0
VERTEX
  5
11F
330
100
100
AcDbEntity
  8
0
  6
Continuous
 62
     7
100
AcDbVertex
100
AcDb2dVertex
 10
91.24420315577233
 20
30.94075044527288
 30
0.0
 70
     8
  0
VERTEX
  5
120
330
100
100
AcDbEntity
  8
0
  6
Continuous
 62
     7
100
AcDbVertex
100
AcDb2dVertex
 10
92.6063546881699
 20
30.6973210608902
 30
0.0
 70
     8
  0
VERTEX
  5
121
330
100
100
AcDbEntity
  8
0
  6
Continuous
 62
     7
100
AcDbVertex
100
AcDb2dVertex
 10
93.95701733046819
 20
30.45848025652801
 30
0.0
 70
     8
  0
VERTEX
  5
122
330
100
100
AcDbEntity
  8
0
  6
Continuous
 62
     7
100
AcDbVertex
100
AcDb2dVertex
 10
95.30049941645441
 20
30.22407160332197
 30
0.0
 70
     8
  0
VERTEX
  5
123
330
100
100
AcDbEntity
  8
0
  6
Continuous
 62
     7
100
AcDbVertex
100
AcDb2dVertex
 10
96.64110927991582
 20
29.99393867240777
 30
0.0
 70
     8
  0
VERTEX
  5
124
330
100
100
AcDbEntity
  8
0
  6
Continuous
 62
     7
100
AcDbVertex
100
AcDb2dVertex
 10
97.98315525463961
 20
29.76792503492105
 30
0.0
 70
     8
  0
VERTEX
  5
125
330
100
100
AcDbEntity
  8
0
  6
Continuous
 62
     7
100
AcDbVertex
100
AcDb2dVertex
 10
99.33094567441309
 20
29.54587426199749
 30
0.0
 70
     8
  0
VERTEX
  5
126
330
100
100
AcDbEntity
  8
0
  6
Continuous
 62
     7
100
AcDbVertex
100
AcDb2dVertex
 10
100.6887888730234
 20
29.32762992477275
 30
0.0
 70
     8
  0
VERTEX
  5
127
330
100
100
AcDbEntity
  8
0
  6
Continuous
 62
     7
100
AcDbVertex
100
AcDb2dVertex
 10
102.0609931842579
 20
29.11303559438248
 30
0.0
 70
     8
  0
VERTEX
  5
128
330
100
100
AcDbEntity
  8
0
  6
Continuous
 62
     7
100
AcDbVertex
100
AcDb2dVertex
 10
103.4518669419037
 20
28.90193484196237
 30
0.0
 70
     8
  0
VERTEX
  5
129
330
100
100
AcDbEntity
  8
0
  6
Continuous
 62
     7
100
AcDbVertex
100
AcDb2dVertex
 10
104.8657184797481
 20
28.69417123864807
 30
0.0
 70
     8
  0
VERTEX
  5
12A
330
100
100
AcDbEntity
  8
0
  6
Continuous
 62
     7
100
AcDbVertex
100
AcDb2dVertex
 10
106.3068561315783
 20
28.48958835557526
 30
0.0
 70
     8
  0
VERTEX
  5
12B
330
100
100
AcDbEntity
  8
0
  6
Continuous
 62
     7
100
AcDbVertex
100
AcDb2dVertex
 10
107.7795882311816
 20
28.28802976387958
 30
0.0
 70
     8
  0
VERTEX
  5
12C
330
100
100
AcDbEntity
  8
0
  6
Continuous
 62
     7
100
AcDbVertex
100
AcDb2dVertex
 10
109.2882231123452
 20
28.08933903469672
 30
0.0
 70
     8
  0
VERTEX
  5
12D
330
100
100
AcDbEntity
  8
0
  6
Continuous
 62
     7
100
AcDbVertex
100
AcDb2dVertex
 10
110.8370691088563
 20
27.89335973916232
 30
0.0
 70
     8
  0
VERTEX
  5
12E
330
100
100
AcDbEntity
  8
0
  6
Continuous
 62
     7
100
AcDbVertex
100
AcDb2dVertex
 10
112.4304345545022
 20
27.69993544841207
 30
0.0
 70
     8
  0
VERTEX
  5
12F
330
100
100
AcDbEntity
  8
0
  6
Continuous
 62
     7
100
AcDbVertex
100
AcDb2dVertex
 10
114.07262778307
 20
27.50890973358162
 30
0.0
 70
     8
  0
VERTEX
  5
130
330
100
100
AcDbEntity
  8
0
  6
Continuous
 62
     7
100
AcDbVertex
100
AcDb2dVertex
 10
115.7679571283471
 20
27.32012616580664
 30
0.0
 70
     8
  0
VERTEX
  5
131
330
100
100
AcDbEntity
  8
0
  6
Continuous
 62
     7
100
AcDbVertex
100
AcDb2dVertex
 10
117.5214489797519
 20
27.13343058330779
 30
0.0
 70
     8
  0
VERTEX
  5
132
330
100
100
AcDbEntity
  8
0
  6
Continuous
 62
     7
100
AcDbVertex
100
AcDb2dVertex
 10
119.3410019492277
 20
26.94867789264567
 30
0.0
 70
     8
  0
VERTEX
  5
133
330
100
100
AcDbEntity
  8
0
  6
Continuous
 62
     7
100
AcDbVertex
100
AcDb2dVertex
 10
121.2352327043488
 20
26.7657252674659
 30
0.0
 70
     8
  0
VERTEX
  5
134
330
100
100
AcDbEntity
  8
0
  6
Continuous
 62
     7
100
AcDbVertex
100
AcDb2dVertex
 10
123.2127579126899
 20
26.58442988141409
 30
0.0
 70
     8
  0
VERTEX
  5
135
330
100
100
AcDbEntity
  8
0
  6
Continuous
 62
     7
100
AcDbVertex
100
AcDb2dVertex
 10
125.2821942418252
 20
26.40464890813584
 30
0.0
 70
     8
  0
VERTEX
  5
136
330
100
100
AcDbEntity
  8
0
  6
Continuous
 62
     7
100
AcDbVertex
100
AcDb2dVertex
 10
127.4521583593294
 20
26.22623952127676
 30
0.0
 70
     8
  0
VERTEX
  5
137
330
100
100
AcDbEntity
  8
0
  6
Continuous
 62
     7
100
AcDbVertex
100
AcDb2dVertex
 10
129.7312669327769
 20
26.04905889448245
 30
0.0
 70
     8
  0
VERTEX
  5
138
330
100
100
AcDbEntity
  8
0
  6
Continuous
 62
     7
100
AcDbVertex
100
AcDb2dVertex
 10
132.1281366297422
 20
25.87296420139852
 30
0.0
 70
     8
  0
VERTEX
  5
139
330
100
100
AcDbEntity
  8
0
  6
Continuous
 62
     7
100
AcDbVertex
100
AcDb2dVertex
 10
134.6513841177997
 20
25.69781261567059
 30
0.0
 70
     8
  0
VERTEX
  5
13A
330
100
100
AcDbEntity
  8
0
  6
Continuous
 62
     7
100
AcDbVertex
100
AcDb2dVertex
 10
137.3096260645239
 20
25.52346131094426
 30
0.0
 70
     8
  0
VERTEX
  5
13B
330
100
100
AcDbEntity
  8
0
  6
Continuous
 62
     7
100
AcDbVertex
100
AcDb2dVertex
 10
140.1114791374893
 20
25.34976746086514
 30
0.0
 70
     8
  0
VERTEX
  5
13C
330
100
100
AcDbEntity
  8
0
  6
Continuous
 62
     7
100
AcDbVertex
100
AcDb2dVertex
 10
143.0655600042704
 20
25.17658823907882
 30
0.0
 70
     8
  0
VERTEX
  5
13D
330
100
100
AcDbEntity
  8
0
  6
Continuous
 62
     7
100
AcDbVertex
100
AcDb2dVertex
 10
146.1804853324415
 20
25.00378081923093
 30
0.0
 70
     8
  0
VERTEX
  5
13E
330
100
100
AcDbEntity
  8
0
  6
Continuous
 62
     7
100
AcDbVertex
100
AcDb2dVertex
 10
149.4648717895773
 20
24.83120237496706
 30
0.0
 70
     8
  0
VERTEX
  5
13F
330
100
100
AcDbEntity
  8
0
  6
Continuous
 62
     7
100
AcDbVertex
100
AcDb2dVertex
 10
152.9273360432521
 20
24.65871007993282
 30
0.0
 70
     8
  0
VERTEX
  5
140
330
100
100
AcDbEntity
  8
0
  6
Continuous
 62
     7
100
AcDbVertex
100
AcDb2dVertex
 10
156.5764947610404
 20
24.48616110777382
 30
0.0
 70
     8
  0
VERTEX
  5
141
330
100
100
AcDbEntity
  8
0
  6
Continuous
 62
     7
100
AcDbVertex
100
AcDb2dVertex
 10
160.4209646105168
 20
24.31341263213567
 30
0.0
 70
     8
  0
VERTEX
  5
142
330
100
100
AcDbEntity
  8
0
  6
Continuous
 62
     7
100
AcDbVertex
100
AcDb2dVertex
 10
164.4693622592556
 20
24.14032182666398
 30
0.0
 70
     8
  0
VERTEX
  5
143
330
100
100
AcDbEntity
  8
0
  6
Continuous
 62
     7
100
AcDbVertex
100
AcDb2dVertex
 10
168.7303043748313
 20
23.96674586500435
 30
0.0
 70
     8
  0
VERTEX
  5
144
330
100
100
AcDbEntity
  8
0
  6
Continuous
 62
     7
100
AcDbVertex
100
AcDb2dVertex
 10
173.2124076248185
 20
23.79254192080239
 30
0.0
 70
     8
  0
VERTEX
  5
145
330
100
100
AcDbEntity
  8
0
  6
Continuous
 62
     7
100
AcDbVertex
100
AcDb2dVertex
 10
177.9266821955623
 20
23.61753165003886
 30
0.0
 70
     8
  0
VERTEX
  5
146
330
100
100
AcDbEntity
  8
0
  6
Continuous
 62
     7
100
AcDbVertex
100
AcDb2dVertex
 10
182.8937123484905
 20
23.44139463803512
 30
0.0
 70
     8
  0
VERTEX
  5
147
330
100
100
AcDbEntity
  8
0
  6
Continuous
 62
     7
100
AcDbVertex
100
AcDb2dVertex
 10
188.1364758638017
 20
23.26377495244768
 30
0.0
 70
     8
  0
VERTEX
  5
148
330
100
100
AcDbEntity
  8
0
  6
Continuous
 62
     7
100
AcDbVertex
100
AcDb2dVertex
 10
193.6779505216947
 20
23.08431666093306
 30
0.0
 70
     8
  0
VERTEX
  5
149
330
100
100
AcDbEntity
  8
0
  6
Continuous
 62
     7
100
AcDbVertex
100
AcDb2dVertex
 10
199.5411141023679
 20
22.90266383114776
 30
0.0
 70
     8
  0
VERTEX
  5
14A
330
100
100
AcDbEntity
  8
0
  6
Continuous
 62
     7
100
AcDbVertex
100
AcDb2dVertex
 10
205.7489443860198
 20
22.71846053074831
 30
0.0
 70
     8
  0
VERTEX
  5
14B
330
100
100
AcDbEntity
  8
0
  6
Continuous
 62
     7
100
AcDbVertex
100
AcDb2dVertex
 10
212.3244191528493
 20
22.53135082739121
 30
0.0
 70
     8
  0
VERTEX
  5
14C
330
100
100
AcDbEntity
  8
0
  6
Continuous
 62
     7
100
AcDbVertex
100
AcDb2dVertex
 10
219.2905161830547
 20
22.34097878873299
 30
0.0
 70
     8
  0
VERTEX
  5
14D
330
100
100
AcDbEntity
  8
0
  6
Continuous
 62
     7
100
AcDbVertex
100
AcDb2dVertex
 10
226.6702132568348
 20
22.14698848243014
 30
0.0
 70
     8
  0
VERTEX
  5
14E
330
100
100
AcDbEntity
  8
0
  6
Continuous
 62
     7
100
AcDbVertex
100
AcDb2dVertex
 10
234.486488154388
 20
21.94902397613918
 30
0.0
 70
     8
  0
VERTEX
  5
14F
330
100
100
AcDbEntity
  8
0
  6
Continuous
 62
     7
100
AcDbVertex
100
AcDb2dVertex
 10
242.7623186559129
 20
21.74672933751663
 30
0.0
 70
     8
  0
VERTEX
  5
150
330
100
100
AcDbEntity
  8
0
  6
Continuous
 62
     7
100
AcDbVertex
100
AcDb2dVertex
 10
251.5206825416082
 20
21.53974863421901
 30
0.0
 70
     8
  0
VERTEX
  5
151
330
100
100
AcDbEntity
  8
0
  6
Continuous
 62
     7
100
AcDbVertex
100
AcDb2dVertex
 10
260.7845575916726
 20
21.32772593390282
 30
0.0
 70
     8
  0
VERTEX
  5
152
330
100
100
AcDbEntity
  8
0
  6
Continuous
 62
     7
100
AcDbVertex
100
AcDb2dVertex
 10
270.5769215863044
 20
21.11030530422457
 30
0.0
 70
     8
  0
VERTEX
  5
153
330
100
100
AcDbEntity
  8
0
  6
Continuous
 62
     7
100
AcDbVertex
100
AcDb2dVertex
 10
280.9207523057024
 20
20.88713081284079
 30
0.0
 70
     8
  0
VERTEX
  5
154
330
100
100
AcDbEntity
  8
0
  6
Continuous
 62
     7
100
AcDbVertex
100
AcDb2dVertex
 10
291.839027530065
 20
20.65784652740798
 30
0.0
 70
     8
  0
VERTEX
  5
155
330
100
100
AcDbEntity
  8
0
  6
Continuous
 62
     7
100
AcDbVertex
100
AcDb2dVertex
 10
303.3547250395909
 20
20.42209651558265
 30
0.0
 70
     8
  0
VERTEX
  5
156
330
100
100
AcDbEntity
  8
0
  6
Continuous
 62
     7
100
AcDbVertex
100
AcDb2dVertex
 10
315.4908226144788
 20
20.17952484502132
 30
0.0
 70
     8
  0
VERTEX
  5
157
330
100
100
AcDbEntity
  8
0
  6
Continuous
 62
     7
100
AcDbVertex
100
AcDb2dVertex
 10
328.2702980349271
 20
19.92977558338051
 30
0.0
 70
     8
  0
VERTEX
  5
158
330
100
100
AcDbEntity
  8
0
  6
Continuous
 62
     7
100
AcDbVertex
100
AcDb2dVertex
 10
341.7161290811345
 20
19.67249279831672
 30
0.0
 70
     8
  0
SEQEND
  5
159
330
100
100
AcDbEntity
  8
0
  6
Continuous
 62
     7
370
     0
  0
LINE
  5
15C
102
{ACAD_XDICTIONARY
360
15A
102
}
330
1F
100
AcDbEntity
  8
0
  6
Continuous
 62
     7
370
     0
100
AcDbLine
 10
341.7161290811343
 20
19.67249279831671
 30
0.0
 11
640.7161290811341
 21
19.67249279831671
 31
0.0
  0
LINE
  5
15F
102
{ACAD_XDICTIONARY
360
15D
102
}
330
1F
100
AcDbEntity
  8
0
  6
Continuous
 62
     7
370
     0
100
AcDbLine
 10
640.7161290811341
 20
62.22249279831669
 30
0.0
 11
640.7161290811341
 21
19.67249279831671
 31
0.0
  0
POLYLINE
  5
160
330
1F
100
AcDbEntity
  8
0
  6
Continuous
 62
     7
370
     0
100
AcDb2dPolyline
 66
     1
 10
0.0
 20
0.0
 30
0.0
 70
   132
 75
     6
  0
VERTEX
  5
161
330
160
100
AcDbEntity
  8
0
  6
Continuous
 62
     7
100
AcDbVertex
100
AcDb2dVertex
 10
242.5010800407704
 20
73.21246116981541
 30
0.0
 70
    16
  0
VERTEX
  5
162
330
160
100
AcDbEntity
  8
0
  6
Continuous
 62
     7
100
AcDbVertex
100
AcDb2dVertex
 10
194.4891240913467
 20
73.35587524069837
 30
0.0
 70
    16
  0
VERTEX
  5
163
330
160
100
AcDbEntity
  8
0
  6
Continuous
 62
     7
100
AcDbVertex
100
AcDb2dVertex
 10
171.0561703107089
 20
71.22229565618377
 30
0.0
 70
    16
  0
VERTEX
  5
164
330
160
100
AcDbEntity
  8
0
  6
Continuous
 62
     7
100
AcDbVertex
100
AcDb2dVertex
 10
125.9587875630664
 20
66.95513648715465
 30
0.0
 70
    16
  0
VERTEX
  5
165
330
160
100
AcDbEntity
  8
0
  6
Continuous
 62
     7
100
AcDbVertex
100
AcDb2dVertex
 10
102.9679649858369
 20
62.33238072070635
 30
0.0
 70
    16
  0
VERTEX
  5
166
330
160
100
AcDbEntity
  8
0
  6
Continuous
 62
     7
100
AcDbVertex
100
AcDb2dVertex
 10
73.78730556089177
 20
54.15365898006712
 30
0.0
 70
    16
  0
VERTEX
  5
167
330
160
100
AcDbEntity
  8
0
  6
Continuous
 62
     7
100
AcDbVertex
100
AcDb2dVertex
 10
52.56500779729531
 20
47.39732362910428
 30
0.0
 70
    16
  0
VERTEX
  5
168
330
160
100
AcDbEntity
  8
0
  6
Continuous
 62
     7
100
AcDbVertex
100
AcDb2dVertex
 10
42.84853482812057
 20
42.59725622086361
 30
0.0
 70
    16
  0
VERTEX
  5
169
330
160
100
AcDbEntity
  8
0
  6
Continuous
 62
     7
100
AcDbVertex
100
AcDb2dVertex
 10
42.84853482812057
 20
42.59725622086361
 30
0.0
 70
    16
  0
VERTEX
  5
16A
330
160
100
AcDbEntity
  8
0
  6
Continuous
 62
     7
100
AcDbVertex
100
AcDb2dVertex
 10
242.5010800407704
 20
73.21246116981541
 30
0.0
 70
     8
  0
VERTEX
  5
16B
330
160
100
AcDbEntity
  8
0
  6
Continuous
 62
     7
100
AcDbVertex
100
AcDb2dVertex
 10
235.5667585574161
 20
73.22502580216985
 30
0.0
 70
     8
  0
VERTEX
  5
16C
330
160
100
AcDbEntity
  8
0
  6
Continuous
 62
     7
100
AcDbVertex
100
AcDb2dVertex
 10
229.1484041566445
 20
73.22021168075052
 30
0.0
 70
     8
  0
VERTEX
  5
16D
330
160
100
AcDbEntity
  8
0
  6
Continuous
 62
     7
100
AcDbVertex
100
AcDb2dVertex
 10
223.2175517351517
 20
73.19879310973073
 30
0.0
 70
     8
  0
VERTEX
  5
16E
330
160
100
AcDbEntity
  8
0
  6
Continuous
 62
     7
100
AcDbVertex
100
AcDb2dVertex
 10
217.7457361896336
 20
73.16154439328379
 30
0.0
 70
     8
  0
VERTEX
  5
16F
330
160
100
AcDbEntity
  8
0
  6
Continuous
 62
     7
100
AcDbVertex
100
AcDb2dVertex
 10
212.7044924167865
 20
73.10923983558305
 30
0.0
 70
     8
  0
VERTEX
  5
170
330
160
100
AcDbEntity
  8
0
  6
Continuous
 62
     7
100
AcDbVertex
100
AcDb2dVertex
 10
208.0653553133064
 20
73.04265374080184
 30
0.0
 70
     8
  0
VERTEX
  5
171
330
160
100
AcDbEntity
  8
0
  6
Continuous
 62
     7
100
AcDbVertex
100
AcDb2dVertex
 10
203.7998597758894
 20
72.96256041311344
 30
0.0
 70
     8
  0
VERTEX
  5
172
330
160
100
AcDbEntity
  8
0
  6
Continuous
 62
     7
100
AcDbVertex
100
AcDb2dVertex
 10
199.8795407012315
 20
72.8697341566912
 30
0.0
 70
     8
  0
VERTEX
  5
173
330
160
100
AcDbEntity
  8
0
  6
Continuous
 62
     7
100
AcDbVertex
100
AcDb2dVertex
 10
196.2759329860289
 20
72.76494927570843
 30
0.0
 70
     8
  0
VERTEX
  5
174
330
160
100
AcDbEntity
  8
0
  6
Continuous
 62
     7
100
AcDbVertex
100
AcDb2dVertex
 10
192.9605715269777
 20
72.6489800743385
 30
0.0
 70
     8
  0
VERTEX
  5
175
330
160
100
AcDbEntity
  8
0
  6
Continuous
 62
     7
100
AcDbVertex
100
AcDb2dVertex
 10
189.9049912207739
 20
72.52260085675466
 30
0.0
 70
     8
  0
VERTEX
  5
176
330
160
100
AcDbEntity
  8
0
  6
Continuous
 62
     7
100
AcDbVertex
100
AcDb2dVertex
 10
187.0807269641136
 20
72.38658592713027
 30
0.0
 70
     8
  0
VERTEX
  5
177
330
160
100
AcDbEntity
  8
0
  6
Continuous
 62
     7
100
AcDbVertex
100
AcDb2dVertex
 10
184.4593136536929
 20
72.24170958963866
 30
0.0
 70
     8
  0
VERTEX
  5
178
330
160
100
AcDbEntity
  8
0
  6
Continuous
 62
     7
100
AcDbVertex
100
AcDb2dVertex
 10
182.0122861862078
 20
72.08874614845315
 30
0.0
 70
     8
  0
VERTEX
  5
179
330
160
100
AcDbEntity
  8
0
  6
Continuous
 62
     7
100
AcDbVertex
100
AcDb2dVertex
 10
179.7111794583546
 20
71.92846990774707
 30
0.0
 70
     8
  0
VERTEX
  5
17A
330
160
100
AcDbEntity
  8
0
  6
Continuous
 62
     7
100
AcDbVertex
100
AcDb2dVertex
 10
177.5275283668292
 20
71.76165517169372
 30
0.0
 70
     8
  0
VERTEX
  5
17B
330
160
100
AcDbEntity
  8
0
  6
Continuous
 62
     7
100
AcDbVertex
100
AcDb2dVertex
 10
175.4328678083277
 20
71.58907624446644
 30
0.0
 70
     8
  0
VERTEX
  5
17C
330
160
100
AcDbEntity
  8
0
  6
Continuous
 62
     7
100
AcDbVertex
100
AcDb2dVertex
 10
173.3987326795463
 20
71.41150743023853
 30
0.0
 70
     8
  0
VERTEX
  5
17D
330
160
100
AcDbEntity
  8
0
  6
Continuous
 62
     7
100
AcDbVertex
100
AcDb2dVertex
 10
171.396657877181
 20
71.22972303318335
 30
0.0
 70
     8
  0
VERTEX
  5
17E
330
160
100
AcDbEntity
  8
0
  6
Continuous
 62
     7
100
AcDbVertex
100
AcDb2dVertex
 10
169.3981782979279
 20
71.04449735747419
 30
0.0
 70
     8
  0
VERTEX
  5
17F
330
160
100
AcDbEntity
  8
0
  6
Continuous
 62
     7
100
AcDbVertex
100
AcDb2dVertex
 10
167.3802408247055
 20
70.8564904731138
 30
0.0
 70
     8
  0
VERTEX
  5
180
330
160
100
AcDbEntity
  8
0
  6
Continuous
 62
     7
100
AcDbVertex
100
AcDb2dVertex
 10
165.3414402853223
 20
70.66590551342205
 30
0.0
 70
     8
  0
VERTEX
  5
181
330
160
100
AcDbEntity
  8
0
  6
Continuous
 62
     7
100
AcDbVertex
100
AcDb2dVertex
 10
163.2857834938092
 20
70.47283137754837
 30
0.0
 70
     8
  0
VERTEX
  5
182
330
160
100
AcDbEntity
  8
0
  6
Continuous
 62
     7
100
AcDbVertex
100
AcDb2dVertex
 10
161.2172772641971
 20
70.27735696464211
 30
0.0
 70
     8
  0
VERTEX
  5
183
330
160
100
AcDbEntity
  8
0
  6
Continuous
 62
     7
100
AcDbVertex
100
AcDb2dVertex
 10
159.1399284105167
 20
70.07957117385264
 30
0.0
 70
     8
  0
VERTEX
  5
184
330
160
100
AcDbEntity
  8
0
  6
Continuous
 62
     7
100
AcDbVertex
100
AcDb2dVertex
 10
157.0577437467991
 20
69.87956290432929
 30
0.0
 70
     8
  0
VERTEX
  5
185
330
160
100
AcDbEntity
  8
0
  6
Continuous
 62
     7
100
AcDbVertex
100
AcDb2dVertex
 10
154.9747300870751
 20
69.67742105522143
 30
0.0
 70
     8
  0
VERTEX
  5
186
330
160
100
AcDbEntity
  8
0
  6
Continuous
 62
     7
100
AcDbVertex
100
AcDb2dVertex
 10
152.8948942453756
 20
69.47323452567841
 30
0.0
 70
     8
  0
VERTEX
  5
187
330
160
100
AcDbEntity
  8
0
  6
Continuous
 62
     7
100
AcDbVertex
100
AcDb2dVertex
 10
150.8222430357314
 20
69.26709221484957
 30
0.0
 70
     8
  0
VERTEX
  5
188
330
160
100
AcDbEntity
  8
0
  6
Continuous
 62
     7
100
AcDbVertex
100
AcDb2dVertex
 10
148.7607832721736
 20
69.05908302188429
 30
0.0
 70
     8
  0
VERTEX
  5
189
330
160
100
AcDbEntity
  8
0
  6
Continuous
 62
     7
100
AcDbVertex
100
AcDb2dVertex
 10
146.7145217687329
 20
68.84929584593192
 30
0.0
 70
     8
  0
VERTEX
  5
18A
330
160
100
AcDbEntity
  8
0
  6
Continuous
 62
     7
100
AcDbVertex
100
AcDb2dVertex
 10
144.6874653394403
 20
68.63781958614179
 30
0.0
 70
     8
  0
VERTEX
  5
18B
330
160
100
AcDbEntity
  8
0
  6
Continuous
 62
     7
100
AcDbVertex
100
AcDb2dVertex
 10
142.6836207983265
 20
68.42474314166331
 30
0.0
 70
     8
  0
VERTEX
  5
18C
330
160
100
AcDbEntity
  8
0
  6
Continuous
 62
     7
100
AcDbVertex
100
AcDb2dVertex
 10
140.7069949594226
 20
68.21015541164577
 30
0.0
 70
     8
  0
VERTEX
  5
18D
330
160
100
AcDbEntity
  8
0
  6
Continuous
 62
     7
100
AcDbVertex
100
AcDb2dVertex
 10
138.7615946367595
 20
67.99414529523857
 30
0.0
 70
     8
  0
VERTEX
  5
18E
330
160
100
AcDbEntity
  8
0
  6
Continuous
 62
     7
100
AcDbVertex
100
AcDb2dVertex
 10
136.8514266443679
 20
67.77680169159105
 30
0.0
 70
     8
  0
VERTEX
  5
18F
330
160
100
AcDbEntity
  8
0
  6
Continuous
 62
     7
100
AcDbVertex
100
AcDb2dVertex
 10
134.9804977962788
 20
67.55821349985254
 30
0.0
 70
     8
  0
VERTEX
  5
190
330
160
100
AcDbEntity
  8
0
  6
Continuous
 62
     7
100
AcDbVertex
100
AcDb2dVertex
 10
133.152814906523
 20
67.33846961917244
 30
0.0
 70
     8
  0
VERTEX
  5
191
330
160
100
AcDbEntity
  8
0
  6
Continuous
 62
     7
100
AcDbVertex
100
AcDb2dVertex
 10
131.3723847891316
 20
67.11765894870007
 30
0.0
 70
     8
  0
VERTEX
  5
192
330
160
100
AcDbEntity
  8
0
  6
Continuous
 62
     7
100
AcDbVertex
100
AcDb2dVertex
 10
129.6432142581353
 20
66.8958703875848
 30
0.0
 70
     8
  0
VERTEX
  5
193
330
160
100
AcDbEntity
  8
0
  6
Continuous
 62
     7
100
AcDbVertex
100
AcDb2dVertex
 10
127.9680528169553
 20
66.67311134408907
 30
0.0
 70
     8
  0
VERTEX
  5
194
330
160
100
AcDbEntity
  8
0
  6
Continuous
 62
     7
100
AcDbVertex
100
AcDb2dVertex
 10
126.344620726574
 20
66.44906326292771
 30
0.0
 70
     8
  0
VERTEX
  5
195
330
160
100
AcDbEntity
  8
0
  6
Continuous
 62
     7
100
AcDbVertex
100
AcDb2dVertex
 10
124.7693809373643
 20
66.22332609792859
 30
0.0
 70
     8
  0
VERTEX
  5
196
330
160
100
AcDbEntity
  8
0
  6
Continuous
 62
     7
100
AcDbVertex
100
AcDb2dVertex
 10
123.2387963996988
 20
65.99549980291964
 30
0.0
 70
     8
  0
VERTEX
  5
197
330
160
100
AcDbEntity
  8
0
  6
Continuous
 62
     7
100
AcDbVertex
100
AcDb2dVertex
 10
121.7493300639503
 20
65.76518433172875
 30
0.0
 70
     8
  0
VERTEX
  5
198
330
160
100
AcDbEntity
  8
0
  6
Continuous
 62
     7
100
AcDbVertex
100
AcDb2dVertex
 10
120.2974448804915
 20
65.53197963818384
 30
0.0
 70
     8
  0
VERTEX
  5
199
330
160
100
AcDbEntity
  8
0
  6
Continuous
 62
     7
100
AcDbVertex
100
AcDb2dVertex
 10
118.8796037996951
 20
65.2954856761128
 30
0.0
 70
     8
  0
VERTEX
  5
19A
330
160
100
AcDbEntity
  8
0
  6
Continuous
 62
     7
100
AcDbVertex
100
AcDb2dVertex
 10
117.4922697719338
 20
65.05530239934355
 30
0.0
 70
     8
  0
VERTEX
  5
19B
330
160
100
AcDbEntity
  8
0
  6
Continuous
 62
     7
100
AcDbVertex
100
AcDb2dVertex
 10
116.1319057475805
 20
64.81102976170396
 30
0.0
 70
     8
  0
VERTEX
  5
19C
330
160
100
AcDbEntity
  8
0
  6
Continuous
 62
     7
100
AcDbVertex
100
AcDb2dVertex
 10
114.7949746770078
 20
64.56226771702195
 30
0.0
 70
     8
  0
VERTEX
  5
19D
330
160
100
AcDbEntity
  8
0
  6
Continuous
 62
     7
100
AcDbVertex
100
AcDb2dVertex
 10
113.4779395105885
 20
64.30861621912545
 30
0.0
 70
     8
  0
VERTEX
  5
19E
330
160
100
AcDbEntity
  8
0
  6
Continuous
 62
     7
100
AcDbVertex
100
AcDb2dVertex
 10
112.1772631986954
 20
64.04967522184234
 30
0.0
 70
     8
  0
VERTEX
  5
19F
330
160
100
AcDbEntity
  8
0
  6
Continuous
 62
     7
100
AcDbVertex
100
AcDb2dVertex
 10
110.889408691701
 20
63.7850446790005
 30
0.0
 70
     8
  0
VERTEX
  5
1A0
330
160
100
AcDbEntity
  8
0
  6
Continuous
 62
     7
100
AcDbVertex
100
AcDb2dVertex
 10
109.6108389399782
 20
63.51432454442787
 30
0.0
 70
     8
  0
VERTEX
  5
1A1
330
160
100
AcDbEntity
  8
0
  6
Continuous
 62
     7
100
AcDbVertex
100
AcDb2dVertex
 10
108.3380168938997
 20
63.23711477195235
 30
0.0
 70
     8
  0
VERTEX
  5
1A2
330
160
100
AcDbEntity
  8
0
  6
Continuous
 62
     7
100
AcDbVertex
100
AcDb2dVertex
 10
107.0674055038383
 20
62.95301531540183
 30
0.0
 70
     8
  0
VERTEX
  5
1A3
330
160
100
AcDbEntity
  8
0
  6
Continuous
 62
     7
100
AcDbVertex
100
AcDb2dVertex
 10
105.7954677201666
 20
62.66162612860421
 30
0.0
 70
     8
  0
VERTEX
  5
1A4
330
160
100
AcDbEntity
  8
0
  6
Continuous
 62
     7
100
AcDbVertex
100
AcDb2dVertex
 10
104.5186664932575
 20
62.36254716538742
 30
0.0
 70
     8
  0
VERTEX
  5
1A5
330
160
100
AcDbEntity
  8
0
  6
Continuous
 62
     7
100
AcDbVertex
100
AcDb2dVertex
 10
103.2334647734836
 20
62.05537837957933
 30
0.0
 70
     8
  0
VERTEX
  5
1A6
330
160
100
AcDbEntity
  8
0
  6
Continuous
 62
     7
100
AcDbVertex
100
AcDb2dVertex
 10
101.9363255112176
 20
61.73971972500785
 30
0.0
 70
     8
  0
VERTEX
  5
1A7
330
160
100
AcDbEntity
  8
0
  6
Continuous
 62
     7
100
AcDbVertex
100
AcDb2dVertex
 10
100.6245959192392
 20
61.41534154553719
 30
0.0
 70
     8
  0
VERTEX
  5
1A8
330
160
100
AcDbEntity
  8
0
  6
Continuous
 62
     7
100
AcDbVertex
100
AcDb2dVertex
 10
99.29916025995516
 20
61.08269574517652
 30
0.0
 70
     8
  0
VERTEX
  5
1A9
330
160
100
AcDbEntity
  8
0
  6
Continuous
 62
     7
100
AcDbVertex
100
AcDb2dVertex
 10
97.96178705817908
 20
60.74240461797133
 30
0.0
 70
     8
  0
VERTEX
  5
1AA
330
160
100
AcDbEntity
  8
0
  6
Continuous
 62
     7
100
AcDbVertex
100
AcDb2dVertex
 10
96.6142448387246
 20
60.39509045796712
 30
0.0
 70
     8
  0
VERTEX
  5
1AB
330
160
100
AcDbEntity
  8
0
  6
Continuous
 62
     7
100
AcDbVertex
100
AcDb2dVertex
 10
95.25830212640538
 20
60.04137555920936
 30
0.0
 70
     8
  0
VERTEX
  5
1AC
330
160
100
AcDbEntity
  8
0
  6
Continuous
 62
     7
100
AcDbVertex
100
AcDb2dVertex
 10
93.89572744603501
 20
59.68188221574354
 30
0.0
 70
     8
  0
VERTEX
  5
1AD
330
160
100
AcDbEntity
  8
0
  6
Continuous
 62
     7
100
AcDbVertex
100
AcDb2dVertex
 10
92.52828932242717
 20
59.31723272161516
 30
0.0
 70
     8
  0
VERTEX
  5
1AE
330
160
100
AcDbEntity
  8
0
  6
Continuous
 62
     7
100
AcDbVertex
100
AcDb2dVertex
 10
91.15775628039547
 20
58.94804937086967
 30
0.0
 70
     8
  0
VERTEX
  5
1AF
330
160
100
AcDbEntity
  8
0
  6
Continuous
 62
     7
100
AcDbVertex
100
AcDb2dVertex
 10
89.78589684475354
 20
58.57495445755257
 30
0.0
 70
     8
  0
VERTEX
  5
1B0
330
160
100
AcDbEntity
  8
0
  6
Continuous
 62
     7
100
AcDbVertex
100
AcDb2dVertex
 10
88.41447954031501
 20
58.19857027570935
 30
0.0
 70
     8
  0
VERTEX
  5
1B1
330
160
100
AcDbEntity
  8
0
  6
Continuous
 62
     7
100
AcDbVertex
100
AcDb2dVertex
 10
87.04527289189355
 20
57.81951911938549
 30
0.0
 70
     8
  0
VERTEX
  5
1B2
330
160
100
AcDbEntity
  8
0
  6
Continuous
 62
     7
100
AcDbVertex
100
AcDb2dVertex
 10
85.68004542430275
 20
57.43842328262647
 30
0.0
 70
     8
  0
VERTEX
  5
1B3
330
160
100
AcDbEntity
  8
0
  6
Continuous
 62
     7
100
AcDbVertex
100
AcDb2dVertex
 10
84.32056566235624
 20
57.05590505947777
 30
0.0
 70
     8
  0
VERTEX
  5
1B4
330
160
100
AcDbEntity
  8
0
  6
Continuous
 62
     7
100
AcDbVertex
100
AcDb2dVertex
 10
82.9686021308677
 20
56.67258674398487
 30
0.0
 70
     8
  0
VERTEX
  5
1B5
330
160
100
AcDbEntity
  8
0
  6
Continuous
 62
     7
100
AcDbVertex
100
AcDb2dVertex
 10
81.62592335465071
 20
56.28909063019326
 30
0.0
 70
     8
  0
VERTEX
  5
1B6
330
160
100
AcDbEntity
  8
0
  6
Continuous
 62
     7
100
AcDbVertex
100
AcDb2dVertex
 10
80.29429785851895
 20
55.90603901214843
 30
0.0
 70
     8
  0
VERTEX
  5
1B7
330
160
100
AcDbEntity
  8
0
  6
Continuous
 62
     7
100
AcDbVertex
100
AcDb2dVertex
 10
78.97549416728599
 20
55.52405418389586
 30
0.0
 70
     8
  0
VERTEX
  5
1B8
330
160
100
AcDbEntity
  8
0
  6
Continuous
 62
     7
100
AcDbVertex
100
AcDb2dVertex
 10
77.67128080576552
 20
55.14375843948103
 30
0.0
 70
     8
  0
VERTEX
  5
1B9
330
160
100
AcDbEntity
  8
0
  6
Continuous
 62
     7
100
AcDbVertex
100
AcDb2dVertex
 10
76.38342629877117
 20
54.76577407294943
 30
0.0
 70
     8
  0
VERTEX
  5
1BA
330
160
100
AcDbEntity
  8
0
  6
Continuous
 62
     7
100
AcDbVertex
100
AcDb2dVertex
 10
75.11369917111655
 20
54.39072337834652
 30
0.0
 70
     8
  0
VERTEX
  5
1BB
330
160
100
AcDbEntity
  8
0
  6
Continuous
 62
     7
100
AcDbVertex
100
AcDb2dVertex
 10
73.86354588570155
 20
54.01908605587376
 30
0.0
 70
     8
  0
VERTEX
  5
1BC
330
160
100
AcDbEntity
  8
0
  6
Continuous
 62
     7
100
AcDbVertex
100
AcDb2dVertex
 10
72.63312465777098
 20
53.65077143035629
 30
0.0
 70
     8
  0
VERTEX
  5
1BD
330
160
100
AcDbEntity
  8
0
  6
Continuous
 62
     7
100
AcDbVertex
100
AcDb2dVertex
 10
71.4222716406559
 20
53.28554623277525
 30
0.0
 70
     8
  0
VERTEX
  5
1BE
330
160
100
AcDbEntity
  8
0
  6
Continuous
 62
     7
100
AcDbVertex
100
AcDb2dVertex
 10
70.23082298768736
 20
52.92317719411174
 30
0.0
 70
     8
  0
VERTEX
  5
1BF
330
160
100
AcDbEntity
  8
0
  6
Continuous
 62
     7
100
AcDbVertex
100
AcDb2dVertex
 10
69.05861485219643
 20
52.5634310453469
 30
0.0
 70
     8
  0
VERTEX
  5
1C0
330
160
100
AcDbEntity
  8
0
  6
Continuous
 62
     7
100
AcDbVertex
100
AcDb2dVertex
 10
67.9054833875142
 20
52.20607451746181
 30
0.0
 70
     8
  0
VERTEX
  5
1C1
330
160
100
AcDbEntity
  8
0
  6
Continuous
 62
     7
100
AcDbVertex
100
AcDb2dVertex
 10
66.77126474697168
 20
51.85087434143762
 30
0.0
 70
     8
  0
VERTEX
  5
1C2
330
160
100
AcDbEntity
  8
0
  6
Continuous
 62
     7
100
AcDbVertex
100
AcDb2dVertex
 10
65.65579508389997
 20
51.49759724825542
 30
0.0
 70
     8
  0
VERTEX
  5
1C3
330
160
100
AcDbEntity
  8
0
  6
Continuous
 62
     7
100
AcDbVertex
100
AcDb2dVertex
 10
64.55891055163012
 20
51.14600996889634
 30
0.0
 70
     8
  0
VERTEX
  5
1C4
330
160
100
AcDbEntity
  8
0
  6
Continuous
 62
     7
100
AcDbVertex
100
AcDb2dVertex
 10
63.48044730349319
 20
50.7958792343415
 30
0.0
 70
     8
  0
VERTEX
  5
1C5
330
160
100
AcDbEntity
  8
0
  6
Continuous
 62
     7
100
AcDbVertex
100
AcDb2dVertex
 10
62.42024149282024
 20
50.446971775572
 30
0.0
 70
     8
  0
VERTEX
  5
1C6
330
160
100
AcDbEntity
  8
0
  6
Continuous
 62
     7
100
AcDbVertex
100
AcDb2dVertex
 10
61.37812927294232
 20
50.09905432356896
 30
0.0
 70
     8
  0
VERTEX
  5
1C7
330
160
100
AcDbEntity
  8
0
  6
Continuous
 62
     7
100
AcDbVertex
100
AcDb2dVertex
 10
60.3539467971905
 20
49.75189360931352
 30
0.0
 70
     8
  0
VERTEX
  5
1C8
330
160
100
AcDbEntity
  8
0
  6
Continuous
 62
     7
100
AcDbVertex
100
AcDb2dVertex
 10
59.34753021889585
 20
49.40525636378675
 30
0.0
 70
     8
  0
VERTEX
  5
1C9
330
160
100
AcDbEntity
  8
0
  6
Continuous
 62
     7
100
AcDbVertex
100
AcDb2dVertex
 10
58.35871569138941
 20
49.0589093179698
 30
0.0
 70
     8
  0
VERTEX
  5
1CA
330
160
100
AcDbEntity
  8
0
  6
Continuous
 62
     7
100
AcDbVertex
100
AcDb2dVertex
 10
57.38733936800226
 20
48.71261920284378
 30
0.0
 70
     8
  0
VERTEX
  5
1CB
330
160
100
AcDbEntity
  8
0
  6
Continuous
 62
     7
100
AcDbVertex
100
AcDb2dVertex
 10
56.43323740206545
 20
48.36615274938979
 30
0.0
 70
     8
  0
VERTEX
  5
1CC
330
160
100
AcDbEntity
  8
0
  6
Continuous
 62
     7
100
AcDbVertex
100
AcDb2dVertex
 10
55.49624594691004
 20
48.01927668858897
 30
0.0
 70
     8
  0
VERTEX
  5
1CD
330
160
100
AcDbEntity
  8
0
  6
Continuous
 62
     7
100
AcDbVertex
100
AcDb2dVertex
 10
54.57620115586711
 20
47.67175775142241
 30
0.0
 70
     8
  0
VERTEX
  5
1CE
330
160
100
AcDbEntity
  8
0
  6
Continuous
 62
     7
100
AcDbVertex
100
AcDb2dVertex
 10
53.6729391822677
 20
47.32336266887125
 30
0.0
 70
     8
  0
VERTEX
  5
1CF
330
160
100
AcDbEntity
  8
0
  6
Continuous
 62
     7
100
AcDbVertex
100
AcDb2dVertex
 10
52.78679227535848
 20
46.97420629941946
 30
0.0
 70
     8
  0
VERTEX
  5
1D0
330
160
100
AcDbEntity
  8
0
  6
Continuous
 62
     7
100
AcDbVertex
100
AcDb2dVertex
 10
51.92007706804856
 20
46.62579601156244
 30
0.0
 70
     8
  0
VERTEX
  5
1D1
330
160
100
AcDbEntity
  8
0
  6
Continuous
 62
     7
100
AcDbVertex
100
AcDb2dVertex
 10
51.07560628916264
 20
46.27998730129843
 30
0.0
 70
     8
  0
VERTEX
  5
1D2
330
160
100
AcDbEntity
  8
0
  6
Continuous
 62
     7
100
AcDbVertex
100
AcDb2dVertex
 10
50.25619266752545
 20
45.93863566462574
 30
0.0
 70
     8
  0
VERTEX
  5
1D3
330
160
100
AcDbEntity
  8
0
  6
Continuous
 62
     7
100
AcDbVertex
100
AcDb2dVertex
 10
49.46464893196169
 20
45.60359659754261
 30
0.0
 70
     8
  0
VERTEX
  5
1D4
330
160
100
AcDbEntity
  8
0
  6
Continuous
 62
     7
100
AcDbVertex
100
AcDb2dVertex
 10
48.70378781129607
 20
45.2767255960473
 30
0.0
 70
     8
  0
VERTEX
  5
1D5
330
160
100
AcDbEntity
  8
0
  6
Continuous
 62
     7
100
AcDbVertex
100
AcDb2dVertex
 10
47.97642203435329
 20
44.9598781561381
 30
0.0
 70
     8
  0
VERTEX
  5
1D6
330
160
100
AcDbEntity
  8
0
  6
Continuous
 62
     7
100
AcDbVertex
100
AcDb2dVertex
 10
47.28536432995809
 20
44.65490977381325
 30
0.0
 70
     8
  0
VERTEX
  5
1D7
330
160
100
AcDbEntity
  8
0
  6
Continuous
 62
     7
100
AcDbVertex
100
AcDb2dVertex
 10
46.63342742693516
 20
44.36367594507102
 30
0.0
 70
     8
  0
VERTEX
  5
1D8
330
160
100
AcDbEntity
  8
0
  6
Continuous
 62
     7
100
AcDbVertex
100
AcDb2dVertex
 10
46.02342405410921
 20
44.08803216590969
 30
0.0
 70
     8
  0
VERTEX
  5
1D9
330
160
100
AcDbEntity
  8
0
  6
Continuous
 62
     7
100
AcDbVertex
100
AcDb2dVertex
 10
45.45816694030498
 20
43.82983393232752
 30
0.0
 70
     8
  0
VERTEX
  5
1DA
330
160
100
AcDbEntity
  8
0
  6
Continuous
 62
     7
100
AcDbVertex
100
AcDb2dVertex
 10
44.94046881434715
 20
43.59093674032277
 30
0.0
 70
     8
  0
VERTEX
  5
1DB
330
160
100
AcDbEntity
  8
0
  6
Continuous
 62
     7
100
AcDbVertex
100
AcDb2dVertex
 10
44.47314240506042
 20
43.37319608589369
 30
0.0
 70
     8
  0
VERTEX
  5
1DC
330
160
100
AcDbEntity
  8
0
  6
Continuous
 62
     7
100
AcDbVertex
100
AcDb2dVertex
 10
44.05900044126955
 20
43.17846746503857
 30
0.0
 70
     8
  0
VERTEX
  5
1DD
330
160
100
AcDbEntity
  8
0
  6
Continuous
 62
     7
100
AcDbVertex
100
AcDb2dVertex
 10
43.70085565179922
 20
43.00860637375566
 30
0.0
 70
     8
  0
VERTEX
  5
1DE
330
160
100
AcDbEntity
  8
0
  6
Continuous
 62
     7
100
AcDbVertex
100
AcDb2dVertex
 10
43.40152076547413
 20
42.86546830804323
 30
0.0
 70
     8
  0
VERTEX
  5
1DF
330
160
100
AcDbEntity
  8
0
  6
Continuous
 62
     7
100
AcDbVertex
100
AcDb2dVertex
 10
43.16380851111901
 20
42.75090876389955
 30
0.0
 70
     8
  0
VERTEX
  5
1E0
330
160
100
AcDbEntity
  8
0
  6
Continuous
 62
     7
100
AcDbVertex
100
AcDb2dVertex
 10
42.99053161755857
 20
42.66678323732287
 30
0.0
 70
     8
  0
VERTEX
  5
1E1
330
160
100
AcDbEntity
  8
0
  6
Continuous
 62
     7
100
AcDbVertex
100
AcDb2dVertex
 10
42.88450281361751
 20
42.61494722431146
 30
0.0
 70
     8
  0
VERTEX
  5
1E2
330
160
100
AcDbEntity
  8
0
  6
Continuous
 62
     7
100
AcDbVertex
100
AcDb2dVertex
 10
42.84853482812055
 20
42.5972562208636
 30
0.0
 70
     8
  0
SEQEND
  5
1E3
330
160
100
AcDbEntity
  8
0
  6
Continuous
 62
     7
370
     0
  0
CIRCLE
  5
1E6
102
{ACAD_XDICTIONARY
360
1E4
102
}
330
1F
100
AcDbEntity
  8
0
  6
Continuous
 62
     7
370
     0
100
AcDbCircle
 10
209.6021849374324
 20
27.82588255299162
 30
0.0
 40
3.501428280002308
  0
CIRCLE
  5
1E9
102
{ACAD_XDICTIONARY
360
1E7
102
}
330
1F
100
AcDbEntity
  8
0
  6
Continuous
 62
     7
370
     0
100
AcDbCircle
 10
58.96837900408769
 20
43.27654953231396
 30
0.0
 40
3.5
  0
LINE
  5
1EC
102
{ACAD_REACTORS
330
2C0
102
}
102
{ACAD_XDICTIONARY
360
1EA
102
}
330
1F
100
AcDbEntity
  8
0
  6
Continuous
 62
     7
370
     0
100
AcDbLine
 10
221.0109832558098
 20
6.444523574460774
 30
0.0
 11
220.7014326245569
 21
23.58997722335191
 31
0.0
  0
ARC
  5
1EF
102
{ACAD_REACTORS
330
2C0
102
}
102
{ACAD_XDICTIONARY
360
1ED
102
}
330
1F
100
AcDbEntity
  8
0
  6
Continuous
 62
     7
370
     0
100
AcDbCircle
 10
256.8721694625981
 20
-90.84896447509024
 30
0.0
 40
120.0191383924495
100
AcDbArc
 50
84.60883901967127
 51
107.5401920187794
  0
LINE
  5
1F2
102
{ACAD_REACTORS
330
2C0
330
3E0
330
3E0
102
}
102
{ACAD_XDICTIONARY
360
1F0
102
}
330
1F
100
AcDbEntity
  8
0
  6
Continuous
 62
     7
370
     0
100
AcDbLine
 10
221.0109832558098
 20
6.444523574460774
 30
0.0
 11
51.94226104320339
 21
24.2143623299619
 31
0.0
  0
LINE
  5
1F5
102
{ACAD_REACTORS
330
2C0
330
2C6
102
}
102
{ACAD_XDICTIONARY
360
1F3
102
}
330
1F
100
AcDbEntity
  8
0
  6
Continuous
 62
     7
370
     0
100
AcDbLine
 10
52.34830683482515
 20
19.43594225265228
 30
0.0
 11
-0.0111324245636837
 21
42.3346400658712
 31
0.0
  0
POLYLINE
  5
1F6
102
{ACAD_REACTORS
330
2C0
102
}
330
1F
100
AcDbEntity
  8
0
  6
Continuous
 62
     7
370
     0
100
AcDb2dPolyline
 66
     1
 10
0.0
 20
0.0
 30
0.0
 70
   132
 75
     6
  0
VERTEX
  5
1F7
330
1F6
100
AcDbEntity
  8
0
  6
Continuous
 62
     7
100
AcDbVertex
100
AcDb2dVertex
 10
-0.2150496591601438
 20
42.33464006587121
 30
0.0
 70
    16
  0
VERTEX
  5
1F8
330
1F6
100
AcDbEntity
  8
0
  6
Continuous
 62
     7
100
AcDbVertex
100
AcDb2dVertex
 10
9.33460353260024
 20
47.1154199607763
 30
0.0
 70
    16
  0
VERTEX
  5
1F9
330
1F6
100
AcDbEntity
  8
0
  6
Continuous
 62
     7
100
AcDbVertex
100
AcDb2dVertex
 10
21.5759634068595
 20
52.36958083642453
 30
0.0
 70
    16
  0
VERTEX
  5
1FA
330
1F6
100
AcDbEntity
  8
0
  6
Continuous
 62
     7
100
AcDbVertex
100
AcDb2dVertex
 10
37.98459472767507
 20
57.40481834225408
 30
0.0
 70
    16
  0
VERTEX
  5
1FB
330
1F6
100
AcDbEntity
  8
0
  6
Continuous
 62
     7
100
AcDbVertex
100
AcDb2dVertex
 10
67.93685824979873
 20
63.75359606699564
 30
0.0
 70
    16
  0
VERTEX
  5
1FC
330
1F6
100
AcDbEntity
  8
0
  6
Continuous
 62
     7
100
AcDbVertex
100
AcDb2dVertex
 10
83.564126174385
 20
64.62928954627034
 30
0.0
 70
    16
  0
VERTEX
  5
1FD
330
1F6
100
AcDbEntity
  8
0
  6
Continuous
 62
     7
100
AcDbVertex
100
AcDb2dVertex
 10
103.2646100809437
 20
65.36199389912346
 30
0.0
 70
    16
  0
VERTEX
  5
1FE
330
1F6
100
AcDbEntity
  8
0
  6
Continuous
 62
     7
100
AcDbVertex
100
AcDb2dVertex
 10
112.9340615108472
 20
65.284846929818
 30
0.0
 70
    16
  0
VERTEX
  5
1FF
330
1F6
100
AcDbEntity
  8
0
  6
Continuous
 62
     7
100
AcDbVertex
100
AcDb2dVertex
 10
113.0118557030929
 20
65.284196882652
 30
0.0
 70
    16
  0
VERTEX
  5
200
330
1F6
100
AcDbEntity
  8
0
  6
Continuous
 62
     7
100
AcDbVertex
100
AcDb2dVertex
 10
-0.2150496591601438
 20
42.33464006587121
 30
0.0
 70
     8
  0
VERTEX
  5
201
330
1F6
100
AcDbEntity
  8
0
  6
Continuous
 62
     7
100
AcDbVertex
100
AcDb2dVertex
 10
1.192068945840793
 20
43.03581422486501
 30
0.0
 70
     8
  0
VERTEX
  5
202
330
1F6
100
AcDbEntity
  8
0
  6
Continuous
 62
     7
100
AcDbVertex
100
AcDb2dVertex
 10
2.55008050590192
 20
43.70594241611945
 30
0.0
 70
     8
  0
VERTEX
  5
203
330
1F6
100
AcDbEntity
  8
0
  6
Continuous
 62
     7
100
AcDbVertex
100
AcDb2dVertex
 10
3.861312574902888
 20
44.34628416375138
 30
0.0
 70
     8
  0
VERTEX
  5
204
330
1F6
100
AcDbEntity
  8
0
  6
Continuous
 62
     7
100
AcDbVertex
100
AcDb2dVertex
 10
5.128092706723349
 20
44.95809899187768
 30
0.0
 70
     8
  0
VERTEX
  5
205
330
1F6
100
AcDbEntity
  8
0
  6
Continuous
 62
     7
100
AcDbVertex
100
AcDb2dVertex
 10
6.352748455242954
 20
45.54264642461516
 30
0.0
 70
     8
  0
VERTEX
  5
206
330
1F6
100
AcDbEntity
  8
0
  6
Continuous
 62
     7
100
AcDbVertex
100
AcDb2dVertex
 10
7.537607374341356
 20
46.10118598608072
 30
0.0
 70
     8
  0
VERTEX
  5
207
330
1F6
100
AcDbEntity
  8
0
  6
Continuous
 62
     7
100
AcDbVertex
100
AcDb2dVertex
 10
8.684997017898203
 20
46.63497720039119
 30
0.0
 70
     8
  0
VERTEX
  5
208
330
1F6
100
AcDbEntity
  8
0
  6
Continuous
 62
     7
100
AcDbVertex
100
AcDb2dVertex
 10
9.79724493979315
 20
47.14527959166344
 30
0.0
 70
     8
  0
VERTEX
  5
209
330
1F6
100
AcDbEntity
  8
0
  6
Continuous
 62
     7
100
AcDbVertex
100
AcDb2dVertex
 10
10.87667869390585
 20
47.63335268401432
 30
0.0
 70
     8
  0
VERTEX
  5
20A
330
1F6
100
AcDbEntity
  8
0
  6
Continuous
 62
     7
100
AcDbVertex
100
AcDb2dVertex
 10
11.92562583411594
 20
48.10045600156068
 30
0.0
 70
     8
  0
VERTEX
  5
20B
330
1F6
100
AcDbEntity
  8
0
  6
Continuous
 62
     7
100
AcDbVertex
100
AcDb2dVertex
 10
12.94641391430309
 20
48.54784906841937
 30
0.0
 70
     8
  0
VERTEX
  5
20C
330
1F6
100
AcDbEntity
  8
0
  6
Continuous
 62
     7
100
AcDbVertex
100
AcDb2dVertex
 10
13.94137048834694
 20
48.97679140870726
 30
0.0
 70
     8
  0
VERTEX
  5
20D
330
1F6
100
AcDbEntity
  8
0
  6
Continuous
 62
     7
100
AcDbVertex
100
AcDb2dVertex
 10
14.91282311012715
 20
49.38854254654121
 30
0.0
 70
     8
  0
VERTEX
  5
20E
330
1F6
100
AcDbEntity
  8
0
  6
Continuous
 62
     7
100
AcDbVertex
100
AcDb2dVertex
 10
15.86309933352337
 20
49.78436200603806
 30
0.0
 70
     8
  0
VERTEX
  5
20F
330
1F6
100
AcDbEntity
  8
0
  6
Continuous
 62
     7
100
AcDbVertex
100
AcDb2dVertex
 10
16.79452671241524
 20
50.16550931131467
 30
0.0
 70
     8
  0
VERTEX
  5
210
330
1F6
100
AcDbEntity
  8
0
  6
Continuous
 62
     7
100
AcDbVertex
100
AcDb2dVertex
 10
17.70943280068243
 20
50.53324398648789
 30
0.0
 70
     8
  0
VERTEX
  5
211
330
1F6
100
AcDbEntity
  8
0
  6
Continuous
 62
     7
100
AcDbVertex
100
AcDb2dVertex
 10
18.61014515220457
 20
50.88882555567458
 30
0.0
 70
     8
  0
VERTEX
  5
212
330
1F6
100
AcDbEntity
  8
0
  6
Continuous
 62
     7
100
AcDbVertex
100
AcDb2dVertex
 10
19.49899132086133
 20
51.23351354299161
 30
0.0
 70
     8
  0
VERTEX
  5
213
330
1F6
100
AcDbEntity
  8
0
  6
Continuous
 62
     7
100
AcDbVertex
100
AcDb2dVertex
 10
20.37829886053235
 20
51.56856747255581
 30
0.0
 70
     8
  0
VERTEX
  5
214
330
1F6
100
AcDbEntity
  8
0
  6
Continuous
 62
     7
100
AcDbVertex
100
AcDb2dVertex
 10
21.25039532509728
 20
51.89524686848407
 30
0.0
 70
     8
  0
VERTEX
  5
215
330
1F6
100
AcDbEntity
  8
0
  6
Continuous
 62
     7
100
AcDbVertex
100
AcDb2dVertex
 10
22.11754319780359
 20
52.21468799137428
 30
0.0
 70
     8
  0
VERTEX
  5
216
330
1F6
100
AcDbEntity
  8
0
  6
Continuous
 62
     7
100
AcDbVertex
100
AcDb2dVertex
 10
22.98174467936995
 20
52.52753404774869
 30
0.0
 70
     8
  0
VERTEX
  5
217
330
1F6
100
AcDbEntity
  8
0
  6
Continuous
 62
     7
100
AcDbVertex
100
AcDb2dVertex
 10
23.84493689988285
 20
52.83430498061066
 30
0.0
 70
     8
  0
VERTEX
  5
218
330
1F6
100
AcDbEntity
  8
0
  6
Continuous
 62
     7
100
AcDbVertex
100
AcDb2dVertex
 10
24.70905698942878
 20
53.13552073296346
 30
0.0
 70
     8
  0
VERTEX
  5
219
330
1F6
100
AcDbEntity
  8
0
  6
Continuous
 62
     7
100
AcDbVertex
100
AcDb2dVertex
 10
25.5760420780942
 20
53.43170124781044
 30
0.0
 70
     8
  0
VERTEX
  5
21A
330
1F6
100
AcDbEntity
  8
0
  6
Continuous
 62
     7
100
AcDbVertex
100
AcDb2dVertex
 10
26.44782929596562
 20
53.72336646815491
 30
0.0
 70
     8
  0
VERTEX
  5
21B
330
1F6
100
AcDbEntity
  8
0
  6
Continuous
 62
     7
100
AcDbVertex
100
AcDb2dVertex
 10
27.32635577312952
 20
54.01103633700019
 30
0.0
 70
     8
  0
VERTEX
  5
21C
330
1F6
100
AcDbEntity
  8
0
  6
Continuous
 62
     7
100
AcDbVertex
100
AcDb2dVertex
 10
28.21355863967239
 20
54.2952307973496
 30
0.0
 70
     8
  0
VERTEX
  5
21D
330
1F6
100
AcDbEntity
  8
0
  6
Continuous
 62
     7
100
AcDbVertex
100
AcDb2dVertex
 10
29.1113750256807
 20
54.57646979220646
 30
0.0
 70
     8
  0
VERTEX
  5
21E
330
1F6
100
AcDbEntity
  8
0
  6
Continuous
 62
     7
100
AcDbVertex
100
AcDb2dVertex
 10
30.02174206124094
 20
54.85527326457408
 30
0.0
 70
     8
  0
VERTEX
  5
21F
330
1F6
100
AcDbEntity
  8
0
  6
Continuous
 62
     7
100
AcDbVertex
100
AcDb2dVertex
 10
30.94659687643959
 20
55.13216115745578
 30
0.0
 70
     8
  0
VERTEX
  5
220
330
1F6
100
AcDbEntity
  8
0
  6
Continuous
 62
     7
100
AcDbVertex
100
AcDb2dVertex
 10
31.88787660136316
 20
55.4076534138549
 30
0.0
 70
     8
  0
VERTEX
  5
221
330
1F6
100
AcDbEntity
  8
0
  6
Continuous
 62
     7
100
AcDbVertex
100
AcDb2dVertex
 10
32.84751836609811
 20
55.68226997677473
 30
0.0
 70
     8
  0
VERTEX
  5
222
330
1F6
100
AcDbEntity
  8
0
  6
Continuous
 62
     7
100
AcDbVertex
100
AcDb2dVertex
 10
33.82745930073095
 20
55.95653078921862
 30
0.0
 70
     8
  0
VERTEX
  5
223
330
1F6
100
AcDbEntity
  8
0
  6
Continuous
 62
     7
100
AcDbVertex
100
AcDb2dVertex
 10
34.82963653534814
 20
56.23095579418986
 30
0.0
 70
     8
  0
VERTEX
  5
224
330
1F6
100
AcDbEntity
  8
0
  6
Continuous
 62
     7
100
AcDbVertex
100
AcDb2dVertex
 10
35.85598720003616
 20
56.5060649346918
 30
0.0
 70
     8
  0
VERTEX
  5
225
330
1F6
100
AcDbEntity
  8
0
  6
Continuous
 62
     7
100
AcDbVertex
100
AcDb2dVertex
 10
36.90844842488152
 20
56.78237815372773
 30
0.0
 70
     8
  0
VERTEX
  5
226
330
1F6
100
AcDbEntity
  8
0
  6
Continuous
 62
     7
100
AcDbVertex
100
AcDb2dVertex
 10
37.9889573399707
 20
57.06041539430099
 30
0.0
 70
     8
  0
VERTEX
  5
227
330
1F6
100
AcDbEntity
  8
0
  6
Continuous
 62
     7
100
AcDbVertex
100
AcDb2dVertex
 10
39.09945107539017
 20
57.34069659941488
 30
0.0
 70
     8
  0
VERTEX
  5
228
330
1F6
100
AcDbEntity
  8
0
  6
Continuous
 62
     7
100
AcDbVertex
100
AcDb2dVertex
 10
40.24186676122643
 20
57.62374171207274
 30
0.0
 70
     8
  0
VERTEX
  5
229
330
1F6
100
AcDbEntity
  8
0
  6
Continuous
 62
     7
100
AcDbVertex
100
AcDb2dVertex
 10
41.41723807613907
 20
57.909842630101
 30
0.0
 70
     8
  0
VERTEX
  5
22A
330
1F6
100
AcDbEntity
  8
0
  6
Continuous
 62
     7
100
AcDbVertex
100
AcDb2dVertex
 10
42.62298489308012
 20
58.19837907061848
 30
0.0
 70
     8
  0
VERTEX
  5
22B
330
1F6
100
AcDbEntity
  8
0
  6
Continuous
 62
     7
100
AcDbVertex
100
AcDb2dVertex
 10
43.85562363357474
 20
58.48850270556714
 30
0.0
 70
     8
  0
VERTEX
  5
22C
330
1F6
100
AcDbEntity
  8
0
  6
Continuous
 62
     7
100
AcDbVertex
100
AcDb2dVertex
 10
45.11167071914805
 20
58.77936520688894
 30
0.0
 70
     8
  0
VERTEX
  5
22D
330
1F6
100
AcDbEntity
  8
0
  6
Continuous
 62
     7
100
AcDbVertex
100
AcDb2dVertex
 10
46.38764257132522
 20
59.07011824652583
 30
0.0
 70
     8
  0
VERTEX
  5
22E
330
1F6
100
AcDbEntity
  8
0
  6
Continuous
 62
     7
100
AcDbVertex
100
AcDb2dVertex
 10
47.68005561163138
 20
59.35991349641976
 30
0.0
 70
     8
  0
VERTEX
  5
22F
330
1F6
100
AcDbEntity
  8
0
  6
Continuous
 62
     7
100
AcDbVertex
100
AcDb2dVertex
 10
48.98542626159167
 20
59.64790262851269
 30
0.0
 70
     8
  0
VERTEX
  5
230
330
1F6
100
AcDbEntity
  8
0
  6
Continuous
 62
     7
100
AcDbVertex
100
AcDb2dVertex
 10
50.30027094273125
 20
59.93323731474657
 30
0.0
 70
     8
  0
VERTEX
  5
231
330
1F6
100
AcDbEntity
  8
0
  6
Continuous
 62
     7
100
AcDbVertex
100
AcDb2dVertex
 10
51.62110607657524
 20
60.21506922706335
 30
0.0
 70
     8
  0
VERTEX
  5
232
330
1F6
100
AcDbEntity
  8
0
  6
Continuous
 62
     7
100
AcDbVertex
100
AcDb2dVertex
 10
52.94444808464881
 20
60.49255003740498
 30
0.0
 70
     8
  0
VERTEX
  5
233
330
1F6
100
AcDbEntity
  8
0
  6
Continuous
 62
     7
100
AcDbVertex
100
AcDb2dVertex
 10
54.26681338847708
 20
60.76483141771342
 30
0.0
 70
     8
  0
VERTEX
  5
234
330
1F6
100
AcDbEntity
  8
0
  6
Continuous
 62
     7
100
AcDbVertex
100
AcDb2dVertex
 10
55.58471840958522
 20
61.03106503993062
 30
0.0
 70
     8
  0
VERTEX
  5
235
330
1F6
100
AcDbEntity
  8
0
  6
Continuous
 62
     7
100
AcDbVertex
100
AcDb2dVertex
 10
56.89467956949836
 20
61.29040257599852
 30
0.0
 70
     8
  0
VERTEX
  5
236
330
1F6
100
AcDbEntity
  8
0
  6
Continuous
 62
     7
100
AcDbVertex
100
AcDb2dVertex
 10
58.19321328974165
 20
61.5419956978591
 30
0.0
 70
     8
  0
VERTEX
  5
237
330
1F6
100
AcDbEntity
  8
0
  6
Continuous
 62
     7
100
AcDbVertex
100
AcDb2dVertex
 10
59.47683599184023
 20
61.78499607745429
 30
0.0
 70
     8
  0
VERTEX
  5
238
330
1F6
100
AcDbEntity
  8
0
  6
Continuous
 62
     7
100
AcDbVertex
100
AcDb2dVertex
 10
60.74206409731924
 20
62.01855538672606
 30
0.0
 70
     8
  0
VERTEX
  5
239
330
1F6
100
AcDbEntity
  8
0
  6
Continuous
 62
     7
100
AcDbVertex
100
AcDb2dVertex
 10
61.98541402770383
 20
62.24182529761633
 30
0.0
 70
     8
  0
VERTEX
  5
23A
330
1F6
100
AcDbEntity
  8
0
  6
Continuous
 62
     7
100
AcDbVertex
100
AcDb2dVertex
 10
63.20340220451914
 20
62.45395748206709
 30
0.0
 70
     8
  0
VERTEX
  5
23B
330
1F6
100
AcDbEntity
  8
0
  6
Continuous
 62
     7
100
AcDbVertex
100
AcDb2dVertex
 10
64.39254504929032
 20
62.65410361202028
 30
0.0
 70
     8
  0
VERTEX
  5
23C
330
1F6
100
AcDbEntity
  8
0
  6
Continuous
 62
     7
100
AcDbVertex
100
AcDb2dVertex
 10
65.54935898354252
 20
62.84141535941784
 30
0.0
 70
     8
  0
VERTEX
  5
23D
330
1F6
100
AcDbEntity
  8
0
  6
Continuous
 62
     7
100
AcDbVertex
100
AcDb2dVertex
 10
66.67152704776049
 20
63.01530436770339
 30
0.0
 70
     8
  0
VERTEX
  5
23E
330
1F6
100
AcDbEntity
  8
0
  6
Continuous
 62
     7
100
AcDbVertex
100
AcDb2dVertex
 10
67.76139875826769
 20
63.17622216632719
 30
0.0
 70
     8
  0
VERTEX
  5
23F
330
1F6
100
AcDbEntity
  8
0
  6
Continuous
 62
     7
100
AcDbVertex
100
AcDb2dVertex
 10
68.8224902503471
 20
63.32488025624116
 30
0.0
 70
     8
  0
VERTEX
  5
240
330
1F6
100
AcDbEntity
  8
0
  6
Continuous
 62
     7
100
AcDbVertex
100
AcDb2dVertex
 10
69.85831765928177
 20
63.46199013839718
 30
0.0
 70
     8
  0
VERTEX
  5
241
330
1F6
100
AcDbEntity
  8
0
  6
Continuous
 62
     7
100
AcDbVertex
100
AcDb2dVertex
 10
70.8723971203547
 20
63.58826331374717
 30
0.0
 70
     8
  0
VERTEX
  5
242
330
1F6
100
AcDbEntity
  8
0
  6
Continuous
 62
     7
100
AcDbVertex
100
AcDb2dVertex
 10
71.86824476884897
 20
63.70441128324305
 30
0.0
 70
     8
  0
VERTEX
  5
243
330
1F6
100
AcDbEntity
  8
0
  6
Continuous
 62
     7
100
AcDbVertex
100
AcDb2dVertex
 10
72.84937674004757
 20
63.81114554783674
 30
0.0
 70
     8
  0
VERTEX
  5
244
330
1F6
100
AcDbEntity
  8
0
  6
Continuous
 62
     7
100
AcDbVertex
100
AcDb2dVertex
 10
73.81930916923356
 20
63.90917760848012
 30
0.0
 70
     8
  0
VERTEX
  5
245
330
1F6
100
AcDbEntity
  8
0
  6
Continuous
 62
     7
100
AcDbVertex
100
AcDb2dVertex
 10
74.78155819168995
 20
63.99921896612513
 30
0.0
 70
     8
  0
VERTEX
  5
246
330
1F6
100
AcDbEntity
  8
0
  6
Continuous
 62
     7
100
AcDbVertex
100
AcDb2dVertex
 10
75.73963994269981
 20
64.08198112172367
 30
0.0
 70
     8
  0
VERTEX
  5
247
330
1F6
100
AcDbEntity
  8
0
  6
Continuous
 62
     7
100
AcDbVertex
100
AcDb2dVertex
 10
76.69707055754611
 20
64.15817557622765
 30
0.0
 70
     8
  0
VERTEX
  5
248
330
1F6
100
AcDbEntity
  8
0
  6
Continuous
 62
     7
100
AcDbVertex
100
AcDb2dVertex
 10
77.65736617151195
 20
64.22851383058897
 30
0.0
 70
     8
  0
VERTEX
  5
249
330
1F6
100
AcDbEntity
  8
0
  6
Continuous
 62
     7
100
AcDbVertex
100
AcDb2dVertex
 10
78.62404291988031
 20
64.29370738575956
 30
0.0
 70
     8
  0
VERTEX
  5
24A
330
1F6
100
AcDbEntity
  8
0
  6
Continuous
 62
     7
100
AcDbVertex
100
AcDb2dVertex
 10
79.60061693793425
 20
64.35446774269131
 30
0.0
 70
     8
  0
VERTEX
  5
24B
330
1F6
100
AcDbEntity
  8
0
  6
Continuous
 62
     7
100
AcDbVertex
100
AcDb2dVertex
 10
80.59060436095679
 20
64.41150640233616
 30
0.0
 70
     8
  0
VERTEX
  5
24C
330
1F6
100
AcDbEntity
  8
0
  6
Continuous
 62
     7
100
AcDbVertex
100
AcDb2dVertex
 10
81.59752132423097
 20
64.46553486564599
 30
0.0
 70
     8
  0
VERTEX
  5
24D
330
1F6
100
AcDbEntity
  8
0
  6
Continuous
 62
     7
100
AcDbVertex
100
AcDb2dVertex
 10
82.6248839630398
 20
64.51726463357274
 30
0.0
 70
     8
  0
VERTEX
  5
24E
330
1F6
100
AcDbEntity
  8
0
  6
Continuous
 62
     7
100
AcDbVertex
100
AcDb2dVertex
 10
83.67620841266634
 20
64.56740720706827
 30
0.0
 70
     8
  0
VERTEX
  5
24F
330
1F6
100
AcDbEntity
  8
0
  6
Continuous
 62
     7
100
AcDbVertex
100
AcDb2dVertex
 10
84.75501080839362
 20
64.61667408708455
 30
0.0
 70
     8
  0
VERTEX
  5
250
330
1F6
100
AcDbEntity
  8
0
  6
Continuous
 62
     7
100
AcDbVertex
100
AcDb2dVertex
 10
85.86480728550464
 20
64.66577677457347
 30
0.0
 70
     8
  0
VERTEX
  5
251
330
1F6
100
AcDbEntity
  8
0
  6
Continuous
 62
     7
100
AcDbVertex
100
AcDb2dVertex
 10
87.00821324092296
 20
64.71524889524895
 30
0.0
 70
     8
  0
VERTEX
  5
252
330
1F6
100
AcDbEntity
  8
0
  6
Continuous
 62
     7
100
AcDbVertex
100
AcDb2dVertex
 10
88.1842411181338
 20
64.764912573873
 30
0.0
 70
     8
  0
VERTEX
  5
253
330
1F6
100
AcDbEntity
  8
0
  6
Continuous
 62
     7
100
AcDbVertex
100
AcDb2dVertex
 10
89.39100262226303
 20
64.81441205996973
 30
0.0
 70
     8
  0
VERTEX
  5
254
330
1F6
100
AcDbEntity
  8
0
  6
Continuous
 62
     7
100
AcDbVertex
100
AcDb2dVertex
 10
90.62660945843638
 20
64.86339160306312
 30
0.0
 70
     8
  0
VERTEX
  5
255
330
1F6
100
AcDbEntity
  8
0
  6
Continuous
 62
     7
100
AcDbVertex
100
AcDb2dVertex
 10
91.88917333177962
 20
64.91149545267723
 30
0.0
 70
     8
  0
VERTEX
  5
256
330
1F6
100
AcDbEntity
  8
0
  6
Continuous
 62
     7
100
AcDbVertex
100
AcDb2dVertex
 10
93.17680594741857
 20
64.95836785833612
 30
0.0
 70
     8
  0
VERTEX
  5
257
330
1F6
100
AcDbEntity
  8
0
  6
Continuous
 62
     7
100
AcDbVertex
100
AcDb2dVertex
 10
94.48761901047901
 20
65.00365306956382
 30
0.0
 70
     8
  0
VERTEX
  5
258
330
1F6
100
AcDbEntity
  8
0
  6
Continuous
 62
     7
100
AcDbVertex
100
AcDb2dVertex
 10
95.81972422608668
 20
65.04699533588439
 30
0.0
 70
     8
  0
VERTEX
  5
259
330
1F6
100
AcDbEntity
  8
0
  6
Continuous
 62
     7
100
AcDbVertex
100
AcDb2dVertex
 10
97.17123329936737
 20
65.08803890682185
 30
0.0
 70
     8
  0
VERTEX
  5
25A
330
1F6
100
AcDbEntity
  8
0
  6
Continuous
 62
     7
100
AcDbVertex
100
AcDb2dVertex
 10
98.54025793544687
 20
65.12642803190028
 30
0.0
 70
     8
  0
VERTEX
  5
25B
330
1F6
100
AcDbEntity
  8
0
  6
Continuous
 62
     7
100
AcDbVertex
100
AcDb2dVertex
 10
99.92490983945096
 20
65.16180696064366
 30
0.0
 70
     8
  0
VERTEX
  5
25C
330
1F6
100
AcDbEntity
  8
0
  6
Continuous
 62
     7
100
AcDbVertex
100
AcDb2dVertex
 10
101.3233007165054
 20
65.19381994257611
 30
0.0
 70
     8
  0
VERTEX
  5
25D
330
1F6
100
AcDbEntity
  8
0
  6
Continuous
 62
     7
100
AcDbVertex
100
AcDb2dVertex
 10
102.733542271736
 20
65.22211122722163
 30
0.0
 70
     8
  0
VERTEX
  5
25E
330
1F6
100
AcDbEntity
  8
0
  6
Continuous
 62
     7
100
AcDbVertex
100
AcDb2dVertex
 10
104.1537462102685
 20
65.2463250641043
 30
0.0
 70
     8
  0
VERTEX
  5
25F
330
1F6
100
AcDbEntity
  8
0
  6
Continuous
 62
     7
100
AcDbVertex
100
AcDb2dVertex
 10
105.5820242372288
 20
65.26610570274813
 30
0.0
 70
     8
  0
VERTEX
  5
260
330
1F6
100
AcDbEntity
  8
0
  6
Continuous
 62
     7
100
AcDbVertex
100
AcDb2dVertex
 10
107.0164880577424
 20
65.28109739267715
 30
0.0
 70
     8
  0
VERTEX
  5
261
330
1F6
100
AcDbEntity
  8
0
  6
Continuous
 62
     7
100
AcDbVertex
100
AcDb2dVertex
 10
108.4552493769354
 20
65.29094438341546
 30
0.0
 70
     8
  0
VERTEX
  5
262
330
1F6
100
AcDbEntity
  8
0
  6
Continuous
 62
     7
100
AcDbVertex
100
AcDb2dVertex
 10
109.8964198999334
 20
65.29529092448708
 30
0.0
 70
     8
  0
VERTEX
  5
263
330
1F6
100
AcDbEntity
  8
0
  6
Continuous
 62
     7
100
AcDbVertex
100
AcDb2dVertex
 10
111.3381113318623
 20
65.29378126541603
 30
0.0
 70
     8
  0
VERTEX
  5
264
330
1F6
100
AcDbEntity
  8
0
  6
Continuous
 62
     7
100
AcDbVertex
100
AcDb2dVertex
 10
112.7784353778477
 20
65.28605965572639
 30
0.0
 70
     8
  0
VERTEX
  5
265
330
1F6
100
AcDbEntity
  8
0
  6
Continuous
 62
     7
100
AcDbVertex
100
AcDb2dVertex
 10
112.7901083021777
 20
65.28597064598029
 30
0.0
 70
     8
  0
VERTEX
  5
266
330
1F6
100
AcDbEntity
  8
0
  6
Continuous
 62
     7
100
AcDbVertex
100
AcDb2dVertex
 10
112.8017810141889
 20
65.28588120371576
 30
0.0
 70
     8
  0
VERTEX
  5
267
330
1F6
100
AcDbEntity
  8
0
  6
Continuous
 62
     7
100
AcDbVertex
100
AcDb2dVertex
 10
112.813453515793
 20
65.28579132858218
 30
0.0
 70
     8
  0
VERTEX
  5
268
330
1F6
100
AcDbEntity
  8
0
  6
Continuous
 62
     7
100
AcDbVertex
100
AcDb2dVertex
 10
112.8251258089016
 20
65.28570102022906
 30
0.0
 70
     8
  0
VERTEX
  5
269
330
1F6
100
AcDbEntity
  8
0
  6
Continuous
 62
     7
100
AcDbVertex
100
AcDb2dVertex
 10
112.8367978954261
 20
65.28561027830575
 30
0.0
 70
     8
  0
VERTEX
  5
26A
330
1F6
100
AcDbEntity
  8
0
  6
Continuous
 62
     7
100
AcDbVertex
100
AcDb2dVertex
 10
112.8484697772783
 20
65.28551910246173
 30
0.0
 70
     8
  0
VERTEX
  5
26B
330
1F6
100
AcDbEntity
  8
0
  6
Continuous
 62
     7
100
AcDbVertex
100
AcDb2dVertex
 10
112.8601414563696
 20
65.28542749234646
 30
0.0
 70
     8
  0
VERTEX
  5
26C
330
1F6
100
AcDbEntity
  8
0
  6
Continuous
 62
     7
100
AcDbVertex
100
AcDb2dVertex
 10
112.8718129346117
 20
65.28533544760928
 30
0.0
 70
     8
  0
VERTEX
  5
26D
330
1F6
100
AcDbEntity
  8
0
  6
Continuous
 62
     7
100
AcDbVertex
100
AcDb2dVertex
 10
112.8834842139161
 20
65.28524296789969
 30
0.0
 70
     8
  0
VERTEX
  5
26E
330
1F6
100
AcDbEntity
  8
0
  6
Continuous
 62
     7
100
AcDbVertex
100
AcDb2dVertex
 10
112.8951552961945
 20
65.28515005286714
 30
0.0
 70
     8
  0
VERTEX
  5
26F
330
1F6
100
AcDbEntity
  8
0
  6
Continuous
 62
     7
100
AcDbVertex
100
AcDb2dVertex
 10
112.9068261833584
 20
65.28505670216101
 30
0.0
 70
     8
  0
VERTEX
  5
270
330
1F6
100
AcDbEntity
  8
0
  6
Continuous
 62
     7
100
AcDbVertex
100
AcDb2dVertex
 10
112.9184968773194
 20
65.28496291543075
 30
0.0
 70
     8
  0
VERTEX
  5
271
330
1F6
100
AcDbEntity
  8
0
  6
Continuous
 62
     7
100
AcDbVertex
100
AcDb2dVertex
 10
112.9301673799891
 20
65.28486869232579
 30
0.0
 70
     8
  0
VERTEX
  5
272
330
1F6
100
AcDbEntity
  8
0
  6
Continuous
 62
     7
100
AcDbVertex
100
AcDb2dVertex
 10
112.9418376932791
 20
65.28477403249558
 30
0.0
 70
     8
  0
VERTEX
  5
273
330
1F6
100
AcDbEntity
  8
0
  6
Continuous
 62
     7
100
AcDbVertex
100
AcDb2dVertex
 10
112.9535078191008
 20
65.28467893558953
 30
0.0
 70
     8
  0
VERTEX
  5
274
330
1F6
100
AcDbEntity
  8
0
  6
Continuous
 62
     7
100
AcDbVertex
100
AcDb2dVertex
 10
112.965177759366
 20
65.28458340125708
 30
0.0
 70
     8
  0
VERTEX
  5
275
330
1F6
100
AcDbEntity
  8
0
  6
Continuous
 62
     7
100
AcDbVertex
100
AcDb2dVertex
 10
112.9768475159863
 20
65.28448742914767
 30
0.0
 70
     8
  0
VERTEX
  5
276
330
1F6
100
AcDbEntity
  8
0
  6
Continuous
 62
     7
100
AcDbVertex
100
AcDb2dVertex
 10
112.9885170908731
 20
65.28439101891072
 30
0.0
 70
     8
  0
VERTEX
  5
277
330
1F6
100
AcDbEntity
  8
0
  6
Continuous
 62
     7
100
AcDbVertex
100
AcDb2dVertex
 10
113.0001864859381
 20
65.2842941701957
 30
0.0
 70
     8
  0
VERTEX
  5
278
330
1F6
100
AcDbEntity
  8
0
  6
Continuous
 62
     7
100
AcDbVertex
100
AcDb2dVertex
 10
113.0118557030929
 20
65.28419688265198
 30
0.0
 70
     8
  0
SEQEND
  5
279
330
1F6
100
AcDbEntity
  8
0
  6
Continuous
 62
     7
370
     0
  0
POLYLINE
  5
27A
102
{ACAD_REACTORS
330
2C0
102
}
330
1F
100
AcDbEntity
  8
0
  6
Continuous
 62
     7
370
     0
100
AcDb2dPolyline
 66
     1
 10
0.0
 20
0.0
 30
0.0
 70
   132
 75
     6
  0
VERTEX
  5
27B
330
27A
100
AcDbEntity
  8
0
  6
Continuous
 62
     7
100
AcDbVertex
100
AcDb2dVertex
 10
113.0118557030928
 20
65.284196882652
 30
0.0
 70
    16
  0
VERTEX
  5
27C
330
27A
100
AcDbEntity
  8
0
  6
Continuous
 62
     7
100
AcDbVertex
100
AcDb2dVertex
 10
122.4876906586431
 20
65.18915650223937
 30
0.0
 70
    16
  0
VERTEX
  5
27D
330
27A
100
AcDbEntity
  8
0
  6
Continuous
 62
     7
100
AcDbVertex
100
AcDb2dVertex
 10
141.165914937994
 20
63.94716170219975
 30
0.0
 70
    16
  0
VERTEX
  5
27E
330
27A
100
AcDbEntity
  8
0
  6
Continuous
 62
     7
100
AcDbVertex
100
AcDb2dVertex
 10
196.2800088457869
 20
52.72168415652983
 30
0.0
 70
    16
  0
VERTEX
  5
27F
330
27A
100
AcDbEntity
  8
0
  6
Continuous
 62
     7
100
AcDbVertex
100
AcDb2dVertex
 10
268.1485348281205
 20
28.63926575956172
 30
0.0
 70
    16
  0
VERTEX
  5
280
330
27A
100
AcDbEntity
  8
0
  6
Continuous
 62
     7
100
AcDbVertex
100
AcDb2dVertex
 10
268.1485348281205
 20
28.63926575956172
 30
0.0
 70
    16
  0
VERTEX
  5
281
330
27A
100
AcDbEntity
  8
0
  6
Continuous
 62
     7
100
AcDbVertex
100
AcDb2dVertex
 10
113.0118557030928
 20
65.284196882652
 30
0.0
 70
     8
  0
VERTEX
  5
282
330
27A
100
AcDbEntity
  8
0
  6
Continuous
 62
     7
100
AcDbVertex
100
AcDb2dVertex
 10
114.4325005058586
 20
65.26588739187322
 30
0.0
 70
     8
  0
VERTEX
  5
283
330
27A
100
AcDbEntity
  8
0
  6
Continuous
 62
     7
100
AcDbVertex
100
AcDb2dVertex
 10
115.8540053386777
 20
65.23896014015759
 30
0.0
 70
     8
  0
VERTEX
  5
284
330
27A
100
AcDbEntity
  8
0
  6
Continuous
 62
     7
100
AcDbVertex
100
AcDb2dVertex
 10
117.2798515683308
 20
65.20264878725045
 30
0.0
 70
     8
  0
VERTEX
  5
285
330
27A
100
AcDbEntity
  8
0
  6
Continuous
 62
     7
100
AcDbVertex
100
AcDb2dVertex
 10
118.7135205615983
 20
65.1561869928972
 30
0.0
 70
     8
  0
VERTEX
  5
286
330
27A
100
AcDbEntity
  8
0
  6
Continuous
 62
     7
100
AcDbVertex
100
AcDb2dVertex
 10
120.1584936852607
 20
65.09880841684318
 30
0.0
 70
     8
  0
VERTEX
  5
287
330
27A
100
AcDbEntity
  8
0
  6
Continuous
 62
     7
100
AcDbVertex
100
AcDb2dVertex
 10
121.6182523060985
 20
65.02974671883375
 30
0.0
 70
     8
  0
VERTEX
  5
288
330
27A
100
AcDbEntity
  8
0
  6
Continuous
 62
     7
100
AcDbVertex
100
AcDb2dVertex
 10
123.0962777908922
 20
64.9482355586143
 30
0.0
 70
     8
  0
VERTEX
  5
289
330
27A
100
AcDbEntity
  8
0
  6
Continuous
 62
     7
100
AcDbVertex
100
AcDb2dVertex
 10
124.5960515064224
 20
64.85350859593015
 30
0.0
 70
     8
  0
VERTEX
  5
28A
330
27A
100
AcDbEntity
  8
0
  6
Continuous
 62
     7
100
AcDbVertex
100
AcDb2dVertex
 10
126.1210548194694
 20
64.74479949052672
 30
0.0
 70
     8
  0
VERTEX
  5
28B
330
27A
100
AcDbEntity
  8
0
  6
Continuous
 62
     7
100
AcDbVertex
100
AcDb2dVertex
 10
127.6747690968139
 20
64.62134190214933
 30
0.0
 70
     8
  0
VERTEX
  5
28C
330
27A
100
AcDbEntity
  8
0
  6
Continuous
 62
     7
100
AcDbVertex
100
AcDb2dVertex
 10
129.2606757052363
 20
64.48236949054335
 30
0.0
 70
     8
  0
VERTEX
  5
28D
330
27A
100
AcDbEntity
  8
0
  6
Continuous
 62
     7
100
AcDbVertex
100
AcDb2dVertex
 10
130.8822560115171
 20
64.32711591545419
 30
0.0
 70
     8
  0
VERTEX
  5
28E
330
27A
100
AcDbEntity
  8
0
  6
Continuous
 62
     7
100
AcDbVertex
100
AcDb2dVertex
 10
132.542991382437
 20
64.15481483662715
 30
0.0
 70
     8
  0
VERTEX
  5
28F
330
27A
100
AcDbEntity
  8
0
  6
Continuous
 62
     7
100
AcDbVertex
100
AcDb2dVertex
 10
134.2463631847762
 20
63.96469991380764
 30
0.0
 70
     8
  0
VERTEX
  5
290
330
27A
100
AcDbEntity
  8
0
  6
Continuous
 62
     7
100
AcDbVertex
100
AcDb2dVertex
 10
135.9958527853153
 20
63.75600480674099
 30
0.0
 70
     8
  0
VERTEX
  5
291
330
27A
100
AcDbEntity
  8
0
  6
Continuous
 62
     7
100
AcDbVertex
100
AcDb2dVertex
 10
137.7949415508348
 20
63.52796317517259
 30
0.0
 70
     8
  0
VERTEX
  5
292
330
27A
100
AcDbEntity
  8
0
  6
Continuous
 62
     7
100
AcDbVertex
100
AcDb2dVertex
 10
139.6471108481153
 20
63.27980867884781
 30
0.0
 70
     8
  0
VERTEX
  5
293
330
27A
100
AcDbEntity
  8
0
  6
Continuous
 62
     7
100
AcDbVertex
100
AcDb2dVertex
 10
141.5558420439373
 20
63.01077497751199
 30
0.0
 70
     8
  0
VERTEX
  5
294
330
27A
100
AcDbEntity
  8
0
  6
Continuous
 62
     7
100
AcDbVertex
100
AcDb2dVertex
 10
143.5246165050812
 20
62.72009573091049
 30
0.0
 70
     8
  0
VERTEX
  5
295
330
27A
100
AcDbEntity
  8
0
  6
Continuous
 62
     7
100
AcDbVertex
100
AcDb2dVertex
 10
145.5569155983275
 20
62.40700459878871
 30
0.0
 70
     8
  0
VERTEX
  5
296
330
27A
100
AcDbEntity
  8
0
  6
Continuous
 62
     7
100
AcDbVertex
100
AcDb2dVertex
 10
147.673607468316
 20
62.06769662998418
 30
0.0
 70
     8
  0
VERTEX
  5
297
330
27A
100
AcDbEntity
  8
0
  6
Continuous
 62
     7
100
AcDbVertex
100
AcDb2dVertex
 10
149.8615678788488
 20
61.70289925366434
 30
0.0
 70
     8
  0
VERTEX
  5
298
330
27A
100
AcDbEntity
  8
0
  6
Continuous
 62
     7
100
AcDbVertex
100
AcDb2dVertex
 10
152.1239589153426
 20
61.31068194987622
 30
0.0
 70
     8
  0
VERTEX
  5
299
330
27A
100
AcDbEntity
  8
0
  6
Continuous
 62
     7
100
AcDbVertex
100
AcDb2dVertex
 10
154.4639426632139
 20
60.88911419866679
 30
0.0
 70
     8
  0
VERTEX
  5
29A
330
27A
100
AcDbEntity
  8
0
  6
Continuous
 62
     7
100
AcDbVertex
100
AcDb2dVertex
 10
156.8846812078795
 20
60.43626548008304
 30
0.0
 70
     8
  0
VERTEX
  5
29B
330
27A
100
AcDbEntity
  8
0
  6
Continuous
 62
     7
100
AcDbVertex
100
AcDb2dVertex
 10
159.3893366347559
 20
59.95020527417196
 30
0.0
 70
     8
  0
VERTEX
  5
29C
330
27A
100
AcDbEntity
  8
0
  6
Continuous
 62
     7
100
AcDbVertex
100
AcDb2dVertex
 10
161.9810710292598
 20
59.42900306098051
 30
0.0
 70
     8
  0
VERTEX
  5
29D
330
27A
100
AcDbEntity
  8
0
  6
Continuous
 62
     7
100
AcDbVertex
100
AcDb2dVertex
 10
164.6630464768079
 20
58.87072832055568
 30
0.0
 70
     8
  0
VERTEX
  5
29E
330
27A
100
AcDbEntity
  8
0
  6
Continuous
 62
     7
100
AcDbVertex
100
AcDb2dVertex
 10
167.4384250628168
 20
58.27345053294447
 30
0.0
 70
     8
  0
VERTEX
  5
29F
330
27A
100
AcDbEntity
  8
0
  6
Continuous
 62
     7
100
AcDbVertex
100
AcDb2dVertex
 10
170.3103688727031
 20
57.63523917819384
 30
0.0
 70
     8
  0
VERTEX
  5
2A0
330
27A
100
AcDbEntity
  8
0
  6
Continuous
 62
     7
100
AcDbVertex
100
AcDb2dVertex
 10
173.2820399918835
 20
56.95416373635078
 30
0.0
 70
     8
  0
VERTEX
  5
2A1
330
27A
100
AcDbEntity
  8
0
  6
Continuous
 62
     7
100
AcDbVertex
100
AcDb2dVertex
 10
176.3566005057746
 20
56.22829368746227
 30
0.0
 70
     8
  0
VERTEX
  5
2A2
330
27A
100
AcDbEntity
  8
0
  6
Continuous
 62
     7
100
AcDbVertex
100
AcDb2dVertex
 10
179.5372124997931
 20
55.4556985115753
 30
0.0
 70
     8
  0
VERTEX
  5
2A3
330
27A
100
AcDbEntity
  8
0
  6
Continuous
 62
     7
100
AcDbVertex
100
AcDb2dVertex
 10
182.8270380593556
 20
54.63444768873685
 30
0.0
 70
     8
  0
VERTEX
  5
2A4
330
27A
100
AcDbEntity
  8
0
  6
Continuous
 62
     7
100
AcDbVertex
100
AcDb2dVertex
 10
186.2292392698787
 20
53.76261069899389
 30
0.0
 70
     8
  0
VERTEX
  5
2A5
330
27A
100
AcDbEntity
  8
0
  6
Continuous
 62
     7
100
AcDbVertex
100
AcDb2dVertex
 10
189.7469782167791
 20
52.83825702239342
 30
0.0
 70
     8
  0
VERTEX
  5
2A6
330
27A
100
AcDbEntity
  8
0
  6
Continuous
 62
     7
100
AcDbVertex
100
AcDb2dVertex
 10
193.3834169854735
 20
51.8594561389824
 30
0.0
 70
     8
  0
VERTEX
  5
2A7
330
27A
100
AcDbEntity
  8
0
  6
Continuous
 62
     7
100
AcDbVertex
100
AcDb2dVertex
 10
197.1417176613784
 20
50.82427752880784
 30
0.0
 70
     8
  0
VERTEX
  5
2A8
330
27A
100
AcDbEntity
  8
0
  6
Continuous
 62
     7
100
AcDbVertex
100
AcDb2dVertex
 10
201.0250423299105
 20
49.73079067191671
 30
0.0
 70
     8
  0
VERTEX
  5
2A9
330
27A
100
AcDbEntity
  8
0
  6
Continuous
 62
     7
100
AcDbVertex
100
AcDb2dVertex
 10
205.0365530764865
 20
48.57706504835598
 30
0.0
 70
     8
  0
VERTEX
  5
2AA
330
27A
100
AcDbEntity
  8
0
  6
Continuous
 62
     7
100
AcDbVertex
100
AcDb2dVertex
 10
209.173298621384
 20
47.36351512003647
 30
0.0
 70
     8
  0
VERTEX
  5
2AB
330
27A
100
AcDbEntity
  8
0
  6
Continuous
 62
     7
100
AcDbVertex
100
AcDb2dVertex
 10
213.4078742243257
 20
46.09993527632436
 30
0.0
 70
     8
  0
VERTEX
  5
2AC
330
27A
100
AcDbEntity
  8
0
  6
Continuous
 62
     7
100
AcDbVertex
100
AcDb2dVertex
 10
217.7067617798951
 20
44.79846488844962
 30
0.0
 70
     8
  0
VERTEX
  5
2AD
330
27A
100
AcDbEntity
  8
0
  6
Continuous
 62
     7
100
AcDbVertex
100
AcDb2dVertex
 10
222.0364431826758
 20
43.47124332764226
 30
0.0
 70
     8
  0
VERTEX
  5
2AE
330
27A
100
AcDbEntity
  8
0
  6
Continuous
 62
     7
100
AcDbVertex
100
AcDb2dVertex
 10
226.3634003272514
 20
42.13040996513226
 30
0.0
 70
     8
  0
VERTEX
  5
2AF
330
27A
100
AcDbEntity
  8
0
  6
Continuous
 62
     7
100
AcDbVertex
100
AcDb2dVertex
 10
230.6541151082054
 20
40.78810417214962
 30
0.0
 70
     8
  0
VERTEX
  5
2B0
330
27A
100
AcDbEntity
  8
0
  6
Continuous
 62
     7
100
AcDbVertex
100
AcDb2dVertex
 10
234.8750694201217
 20
39.45646531992433
 30
0.0
 70
     8
  0
VERTEX
  5
2B1
330
27A
100
AcDbEntity
  8
0
  6
Continuous
 62
     7
100
AcDbVertex
100
AcDb2dVertex
 10
238.9927451575835
 20
38.14763277968639
 30
0.0
 70
     8
  0
VERTEX
  5
2B2
330
27A
100
AcDbEntity
  8
0
  6
Continuous
 62
     7
100
AcDbVertex
100
AcDb2dVertex
 10
242.9736242151747
 20
36.87374592266578
 30
0.0
 70
     8
  0
VERTEX
  5
2B3
330
27A
100
AcDbEntity
  8
0
  6
Continuous
 62
     7
100
AcDbVertex
100
AcDb2dVertex
 10
246.7841884874788
 20
35.64694412009252
 30
0.0
 70
     8
  0
VERTEX
  5
2B4
330
27A
100
AcDbEntity
  8
0
  6
Continuous
 62
     7
100
AcDbVertex
100
AcDb2dVertex
 10
250.3909198690793
 20
34.47936674319658
 30
0.0
 70
     8
  0
VERTEX
  5
2B5
330
27A
100
AcDbEntity
  8
0
  6
Continuous
 62
     7
100
AcDbVertex
100
AcDb2dVertex
 10
253.7603002545599
 20
33.38315316320796
 30
0.0
 70
     8
  0
VERTEX
  5
2B6
330
27A
100
AcDbEntity
  8
0
  6
Continuous
 62
     7
100
AcDbVertex
100
AcDb2dVertex
 10
256.8588115385043
 20
32.37044275135665
 30
0.0
 70
     8
  0
VERTEX
  5
2B7
330
27A
100
AcDbEntity
  8
0
  6
Continuous
 62
     7
100
AcDbVertex
100
AcDb2dVertex
 10
259.6529356154959
 20
31.45337487887265
 30
0.0
 70
     8
  0
VERTEX
  5
2B8
330
27A
100
AcDbEntity
  8
0
  6
Continuous
 62
     7
100
AcDbVertex
100
AcDb2dVertex
 10
262.1091543801185
 20
30.64408891698596
 30
0.0
 70
     8
  0
VERTEX
  5
2B9
330
27A
100
AcDbEntity
  8
0
  6
Continuous
 62
     7
100
AcDbVertex
100
AcDb2dVertex
 10
264.1939497269555
 20
29.95472423692655
 30
0.0
 70
     8
  0
VERTEX
  5
2BA
330
27A
100
AcDbEntity
  8
0
  6
Continuous
 62
     7
100
AcDbVertex
100
AcDb2dVertex
 10
265.8738035505907
 20
29.39742020992443
 30
0.0
 70
     8
  0
VERTEX
  5
2BB
330
27A
100
AcDbEntity
  8
0
  6
Continuous
 62
     7
100
AcDbVertex
100
AcDb2dVertex
 10
267.1151977456075
 20
28.98431620720959
 30
0.0
 70
     8
  0
VERTEX
  5
2BC
330
27A
100
AcDbEntity
  8
0
  6
Continuous
 62
     7
100
AcDbVertex
100
AcDb2dVertex
 10
267.8846142065896
 20
28.72755160001202
 30
0.0
 70
     8
  0
VERTEX
  5
2BD
330
27A
100
AcDbEntity
  8
0
  6
Continuous
 62
     7
100
AcDbVertex
100
AcDb2dVertex
 10
268.1485348281206
 20
28.63926575956173
 30
0.0
 70
     8
  0
SEQEND
  5
2BE
330
27A
100
AcDbEntity
  8
0
  6
Continuous
 62
     7
370
     0
  0
LINE
  5
2BF
102
{ACAD_REACTORS
330
2C0
102
}
330
1F
100
AcDbEntity
  8
0
  6
Continuous
 62
     7
370
     0
100
AcDbLine
 10
52.34830683482517
 20
19.43594225265228
 30
0.0
 11
51.94226104320339
 21
24.2143623299619
 31
0.0
  0
DIMENSION
  5
2C5
102
{ACAD_REACTORS
330
2C6
102
}
102
{ACAD_XDICTIONARY
360
2C3
102
}
330
1F
100
AcDbEntity
  8
0
  6
Continuous
 62
     7
100
AcDbDimension
  2
*D2
 10
641.0778323224911
 20
91.20607651038304
 30
0.0
 11
320.7474465215615
 21
93.74822142900635
 31
0.0
 70
    33
  1
<>
 71
     5
 42
640.6809457699197
 73
     0
 74
     0
 75
     0
  3
Standard
100
AcDbAlignedDimension
 13
-0.0111324245636837
 23
42.3346400658712
 33
0.0
 14
640.6496391772955
 24
37.2503502286246
 34
0.0
1001
ACAD
1000
DSTYLE
1002
{
1070
   285
1070
     1
1070
     4
1000

1070
    41
1040
5.0
1070
   176
1070
     7
1070
   177
1070
     7
1070
   178
1070
     7
1070
   271
1070
     0
1070
    43
1040
10.0
1070
    44
1040
3.0
1070
    42
1040
1.5
1070
   147
1040
1.5
1070
   272
1070
     4
1070
    74
1070
     1
1070
   140
1040
3.0
1070
    78
1070
     0
1070
    70
1070
     7
1002
}
  0
DIMENSION
  5
2D6
102
{ACAD_XDICTIONARY
360
2D4
102
}
330
1F
100
AcDbEntity
  8
0
  6
Continuous
 62
     7
100
AcDbDimension
  2
*D3
 10
640.5644443193987
 20
-10.61514040565306
 30
0.0
 11
341.7064895737597
 21
-7.58511037562295
 31
0.0
 70
    33
  1
<>
 71
     5
 42
597.7159094912781
 73
     0
 74
     0
 75
     0
  3
Standard
100
AcDbAlignedDimension
 13
42.84853482812065
 23
35.14387493133545
 33
0.0
 14
640.5644443193987
 24
35.1438749313353
 34
0.0
1001
ACAD
1000
DSTYLE
1002
{
1070
   285
1070
     1
1070
     4
1000

1070
    41
1040
5.0
1070
   176
1070
     7
1070
   177
1070
     7
1070
   178
1070
     7
1070
   271
1070
     0
1070
    43
1040
10.0
1070
    44
1040
3.0
1070
    42
1040
1.5
1070
   147
1040
1.5
1070
   272
1070
     4
1070
    74
1070
     1
1070
   140
1040
3.0
1070
    78
1070
     0
1070
    70
1070
     7
1002
}
  0
LINE
  5
2E5
102
{ACAD_REACTORS
330
2F2
330
35E
102
}
102
{ACAD_XDICTIONARY
360
2E3
102
}
330
1F
100
AcDbEntity
  8
0
  6
Continuous
 62
     7
370
     0
100
AcDbLine
 10
0.0
 20
-109.0
 30
0.0
 11
-0.0000000000000066
 21
-150.0
 31
0.0
  0
LINE
  5
2E8
102
{ACAD_REACTORS
330
2F2
330
33D
102
}
102
{ACAD_XDICTIONARY
360
2E6
102
}
330
1F
100
AcDbEntity
  8
0
  6
Continuous
 62
     7
370
     0
100
AcDbLine
 10
0.0
 20
-109.0
 30
0.0
 11
268.75
 21
-109.0
 31
0.0
  0
LINE
  5
2EB
102
{ACAD_REACTORS
330
2F2
102
}
102
{ACAD_XDICTIONARY
360
2E9
102
}
330
1F
100
AcDbEntity
  8
0
  6
Continuous
 62
     7
370
     0
100
AcDbLine
 10
0.0
 20
-150.0
 30
0.0
 11
0.0
 21
-150.0
 31
0.0
  0
LINE
  5
2EE
102
{ACAD_REACTORS
330
2F2
330
33D
102
}
102
{ACAD_XDICTIONARY
360
2EC
102
}
330
1F
100
AcDbEntity
  8
0
  6
Continuous
 62
     7
370
     0
100
AcDbLine
 10
0.0
 20
-150.0
 30
0.0
 11
268.75
 21
-150.0
 31
0.0
  0
LINE
  5
2F1
102
{ACAD_REACTORS
330
2F2
102
}
102
{ACAD_XDICTIONARY
360
2EF
102
}
330
1F
100
AcDbEntity
  8
0
  6
Continuous
 62
     7
370
     0
100
AcDbLine
 10
268.75
 20
-150.0
 30
0.0
 11
268.75
 21
-109.0
 31
0.0
  0
LINE
  5
2F7
102
{ACAD_REACTORS
330
304
330
35E
102
}
102
{ACAD_XDICTIONARY
360
2F5
102
}
330
1F
100
AcDbEntity
  8
0
  6
Continuous
 62
     7
370
     0
100
AcDbLine
 10
0.0049999999999955
 20
-490.0
 30
0.0
 11
0.0049999999999955
 21
-531.0
 31
0.0
  0
LINE
  5
2FA
102
{ACAD_REACTORS
330
304
102
}
102
{ACAD_XDICTIONARY
360
2F8
102
}
330
1F
100
AcDbEntity
  8
0
  6
Continuous
 62
     7
370
     0
100
AcDbLine
 10
0.0049999999999955
 20
-490.0
 30
0.0
 11
268.755
 21
-490.0
 31
0.0
  0
LINE
  5
2FD
102
{ACAD_REACTORS
330
304
102
}
102
{ACAD_XDICTIONARY
360
2FB
102
}
330
1F
100
AcDbEntity
  8
0
  6
Continuous
 62
     7
370
     0
100
AcDbLine
 10
0.0049999999999955
 20
-531.0
 30
0.0
 11
0.0049999999999955
 21
-531.0
 31
0.0
  0
LINE
  5
300
102
{ACAD_REACTORS
330
304
102
}
102
{ACAD_XDICTIONARY
360
2FE
102
}
330
1F
100
AcDbEntity
  8
0
  6
Continuous
 62
     7
370
     0
100
AcDbLine
 10
0.0049999999999955
 20
-531.0
 30
0.0
 11
268.755
 21
-531.0
 31
0.0
  0
LINE
  5
303
102
{ACAD_REACTORS
330
304
102
}
102
{ACAD_XDICTIONARY
360
301
102
}
330
1F
100
AcDbEntity
  8
0
  6
Continuous
 62
     7
370
     0
100
AcDbLine
 10
268.755
 20
-531.0
 30
0.0
 11
268.755
 21
-490.0
 31
0.0
  0
LINE
  5
309
102
{ACAD_REACTORS
330
313
102
}
102
{ACAD_XDICTIONARY
360
307
102
}
330
1F
100
AcDbEntity
  8
0
  6
Continuous
 62
     7
370
     0
100
AcDbLine
 10
43.07
 20
-279.74
 30
0.0
 11
43.07000000000001
 21
-359.74
 31
0.0
  0
LINE
  5
30C
102
{ACAD_REACTORS
330
313
330
36F
102
}
102
{ACAD_XDICTIONARY
360
30A
102
}
330
1F
100
AcDbEntity
  8
0
  6
Continuous
 62
     7
370
     0
100
AcDbLine
 10
43.07
 20
-279.74
 30
0.0
 11
641.07
 21
-279.7400000000002
 31
0.0
  0
LINE
  5
30F
102
{ACAD_REACTORS
330
313
330
36F
102
}
102
{ACAD_XDICTIONARY
360
30D
102
}
330
1F
100
AcDbEntity
  8
0
  6
Continuous
 62
     7
370
     0
100
AcDbLine
 10
43.07000000000001
 20
-359.74
 30
0.0
 11
641.07
 21
-359.74
 31
0.0
  0
LINE
  5
312
102
{ACAD_REACTORS
330
313
102
}
102
{ACAD_XDICTIONARY
360
310
102
}
330
1F
100
AcDbEntity
  8
0
  6
Continuous
 62
     7
370
     0
100
AcDbLine
 10
641.07
 20
-279.7400000000002
 30
0.0
 11
641.07
 21
-359.74
 31
0.0
  0
LINE
  5
318
102
{ACAD_XDICTIONARY
360
316
102
}
330
1F
100
AcDbEntity
  8
0
  6
Continuous
 62
     7
370
     0
100
AcDbLine
 10
55.66308585863823
 20
-149.9844557579903
 30
0.0
 11
55.6630858586382
 21
-279.74
 31
0.0
  0
LINE
  5
31B
102
{ACAD_XDICTIONARY
360
319
102
}
330
1F
100
AcDbEntity
  8
0
  6
HIDDEN
 62
     7
370
     0
100
AcDbLine
 10
55.6630858586382
 20
-279.74
 30
0.0
 11
55.6630858586382
 21
-359.74
 31
0.0
  0
LINE
  5
31E
102
{ACAD_XDICTIONARY
360
31C
102
}
330
1F
100
AcDbEntity
  8
0
  6
Continuous
 62
     7
370
     0
100
AcDbLine
 10
55.6630858586382
 20
-359.74
 30
0.0
 11
55.6630858586382
 21
-490.0
 31
0.0
  0
LINE
  5
321
102
{ACAD_XDICTIONARY
360
31F
102
}
330
1F
100
AcDbEntity
  8
0
  6
Continuous
 62
     7
370
     0
100
AcDbLine
 10
62.62929873062197
 20
-149.9999999999999
 30
0.0
 11
62.62929873062195
 21
-279.74
 31
0.0
  0
LINE
  5
324
102
{ACAD_XDICTIONARY
360
322
102
}
330
1F
100
AcDbEntity
  8
0
  6
HIDDEN
 62
     7
370
     0
100
AcDbLine
 10
62.62929873062195
 20
-279.74
 30
0.0
 11
62.62929873062195
 21
-359.74
 31
0.0
  0
LINE
  5
327
102
{ACAD_XDICTIONARY
360
325
102
}
330
1F
100
AcDbEntity
  8
0
  6
Continuous
 62
     7
370
     0
100
AcDbLine
 10
62.62929873062195
 20
-359.74
 30
0.0
 11
62.62929873062195
 21
-490.0
 31
0.0
  0
LINE
  5
32A
102
{ACAD_XDICTIONARY
360
328
102
}
330
1F
100
AcDbEntity
  8
0
  6
Continuous
 62
     7
370
     0
100
AcDbLine
 10
206.1105844497912
 20
-149.9999999999999
 30
0.0
 11
206.1105844497912
 21
-279.7400000000001
 31
0.0
  0
LINE
  5
32D
102
{ACAD_XDICTIONARY
360
32B
102
}
330
1F
100
AcDbEntity
  8
0
  6
HIDDEN
 62
     7
370
     0
100
AcDbLine
 10
206.1105844497912
 20
-279.7400000000001
 30
0.0
 11
206.1105844497912
 21
-359.74
 31
0.0
  0
LINE
  5
330
102
{ACAD_XDICTIONARY
360
32E
102
}
330
1F
100
AcDbEntity
  8
0
  6
Continuous
 62
     7
370
     0
100
AcDbLine
 10
206.1105844497912
 20
-359.74
 30
0.0
 11
206.1105844497912
 21
-490.0
 31
0.0
  0
LINE
  5
333
102
{ACAD_XDICTIONARY
360
331
102
}
330
1F
100
AcDbEntity
  8
0
  6
Continuous
 62
     7
370
     0
100
AcDbLine
 10
213.076797321775
 20
-150.0
 30
0.0
 11
213.076797321775
 21
-279.7400000000001
 31
0.0
  0
LINE
  5
336
102
{ACAD_XDICTIONARY
360
334
102
}
330
1F
100
AcDbEntity
  8
0
  6
HIDDEN
 62
     7
370
     0
100
AcDbLine
 10
213.076797321775
 20
-279.7400000000001
 30
0.0
 11
213.076797321775
 21
-359.74
 31
0.0
  0
LINE
  5
339
102
{ACAD_XDICTIONARY
360
337
102
}
330
1F
100
AcDbEntity
  8
0
  6
Continuous
 62
     7
370
     0
100
AcDbLine
 10
213.076797321775
 20
-359.74
 30
0.0
 11
213.076797321775
 21
-490.0
 31
0.0
  0
DIMENSION
  5
33C
102
{ACAD_REACTORS
330
33D
102
}
102
{ACAD_XDICTIONARY
360
33A
102
}
330
1F
100
AcDbEntity
  8
0
  6
Continuous
 62
     7
100
AcDbDimension
  2
*D4
 10
311.722543222002
 20
-150.0
 30
0.0
 11
311.722543222002
 21
-129.5
 31
0.0
 70
    33
  1
<>
 71
     5
 42
41.00000000000006
 73
     0
 74
     0
 75
     0
  3
Standard
100
AcDbAlignedDimension
 13
268.75
 23
-109.0
 33
0.0
 14
268.75
 24
-150.0
 34
0.0
1001
ACAD
1000
DSTYLE
1002
{
1070
   285
1070
     1
1070
     4
1000

1070
    41
1040
5.0
1070
   176
1070
     7
1070
   177
1070
     7
1070
   178
1070
     7
1070
   271
1070
     0
1070
    43
1040
10.0
1070
    44
1040
3.0
1070
    42
1040
1.5
1070
   147
1040
1.5
1070
   272
1070
     4
1070
    74
1070
     1
1070
   140
1040
4.236
1070
    78
1070
     0
1070
    70
1070
     7
1002
}
  0
DIMENSION
  5
34D
102
{ACAD_XDICTIONARY
360
34B
102
}
330
1F
100
AcDbEntity
  8
0
  6
Continuous
 62
     7
100
AcDbDimension
  2
*D5
 10
132.2294738971219
 20
-279.505968954108
 30
0.0
 11
132.2294738971219
 21
-214.752984477054
 31
0.0
 70
    33
  1
<>
 71
     5
 42
129.5059689541079
 73
     0
 74
     0
 75
     0
  3
Standard
100
AcDbAlignedDimension
 13
162.6274937021419
 23
-150.0
 33
0.0
 14
162.6274937021419
 24
-279.505968954108
 34
0.0
1001
ACAD
1000
DSTYLE
1002
{
1070
   285
1070
     1
1070
     4
1000

1070
    41
1040
5.0
1070
   176
1070
     7
1070
   177
1070
     7
1070
   178
1070
     7
1070
   271
1070
     0
1070
    43
1040
10.0
1070
    44
1040
3.0
1070
    42
1040
1.5
1070
   147
1040
1.5
1070
   272
1070
     4
1070
    74
1070
     1
1070
   140
1040
4.236
1070
    78
1070
     0
1070
    70
1070
     7
1002
}
  0
DIMENSION
  5
35D
102
{ACAD_REACTORS
330
35E
102
}
102
{ACAD_XDICTIONARY
360
35B
102
}
330
1F
100
AcDbEntity
  8
0
  6
Continuous
 62
     7
100
AcDbDimension
  2
*D6
 10
-23.37943878124248
 20
-490.0003438888056
 30
0.0
 11
-23.38193878124248
 21
-320.0003438888056
 31
0.0
 70
    33
  1
<>
 71
     5
 42
340.0000000367647
 73
     0
 74
     0
 75
     0
  3
Standard
100
AcDbAlignedDimension
 13
0.0
 23
-150.0
 33
0.0
 14
0.0050000000000143
 24
-490.0
 34
0.0
1001
ACAD
1000
DSTYLE
1002
{
1070
   285
1070
     1
1070
     4
1000

1070
    41
1040
5.0
1070
   176
1070
     7
1070
   177
1070
     7
1070
   178
1070
     7
1070
   271
1070
     0
1070
    43
1040
10.0
1070
    44
1040
3.0
1070
    42
1040
1.5
1070
   147
1040
1.5
1070
   272
1070
     4
1070
    74
1070
     1
1070
   140
1040
4.236
1070
    78
1070
     0
1070
    70
1070
     7
1002
}
  0
DIMENSION
  5
36E
102
{ACAD_REACTORS
330
36F
102
}
102
{ACAD_XDICTIONARY
360
36C
102
}
330
1F
100
AcDbEntity
  8
0
  6
Continuous
 62
     7
100
AcDbDimension
  2
*D7
 10
673.6037313770023
 20
-359.74
 30
0.0
 11
673.6037313770023
 21
-319.7400000000001
 31
0.0
 70
    33
  1
<>
 71
     5
 42
79.99999999999983
 73
     0
 74
     0
 75
     0
  3
Standard
100
AcDbAlignedDimension
 13
641.07
 23
-279.7400000000002
 33
0.0
 14
641.07
 24
-359.74
 34
0.0
1001
ACAD
1000
DSTYLE
1002
{
1070
   285
1070
     1
1070
     4
1000

1070
    41
1040
5.0
1070
   176
1070
     7
1070
   177
1070
     7
1070
   178
1070
     7
1070
   271
1070
     0
1070
    43
1040
10.0
1070
    44
1040
3.0
1070
    42
1040
1.5
1070
   147
1040
1.5
1070
   272
1070
     4
1070
    74
1070
     1
1070
   140
1040
4.236
1070
    78
1070
     0
1070
    70
1070
     7
1002
}
  0
LINE
  5
37F
102
{ACAD_XDICTIONARY
360
37D
102
}
330
1F
100
AcDbEntity
  8
0
  6
HIDDEN
 62
     7
370
     0
100
AcDbLine
 10
221.0553692802064
 20
-108.9599436889964
 30
0.0
 11
221.0553692802064
 21
-149.9599436889964
 31
0.0
  0
LINE
  5
382
102
{ACAD_REACTORS
330
386
102
}
102
{ACAD_XDICTIONARY
360
380
102
}
330
1F
100
AcDbEntity
  8
0
  6
HIDDEN
 62
     7
370
     0
100
AcDbLine
 10
221.0553692802064
 20
-490.0
 30
0.0
 11
221.0553692802064
 21
-531.0
 31
0.0
  0
DIMENSION
  5
385
102
{ACAD_REACTORS
330
386
102
}
102
{ACAD_XDICTIONARY
360
383
102
}
330
1F
100
AcDbEntity
  8
0
  6
Continuous
 62
     7
100
AcDbDimension
  2
*D8
 10
640.9781467393229
 20
-443.5827423321306
 30
0.0
 11
431.0167580097647
 21
-439.9287002900886
 31
0.0
 70
    33
  1
<>
 71
     5
 42
419.9227774591166
 73
     0
 74
     0
 75
     0
  3
Standard
100
AcDbAlignedDimension
 13
221.0553692802064
 23
-490.0
 33
0.0
 14
640.9781467393229
 24
-490.0
 34
0.0
1001
ACAD
1000
DSTYLE
1002
{
1070
   285
1070
     1
1070
     4
1000

1070
    41
1040
5.0
1070
   176
1070
     7
1070
   177
1070
     7
1070
   178
1070
     7
1070
   271
1070
     0
1070
    43
1040
10.0
1070
    44
1040
3.0
1070
    42
1040
1.5
1070
   147
1040
1.5
1070
   272
1070
     4
1070
    74
1070
     1
1070
   140
1040
4.236
1070
    78
1070
     0
1070
    70
1070
     7
1002
}
  0
LINE
  5
395
102
{ACAD_XDICTIONARY
360
393
102
}
330
1F
100
AcDbEntity
  8
0
  6
Continuous
 62
     7
370
     0
100
AcDbLine
 10
4.744189075446468
 20
-663.5774875941964
 30
0.0
 11
4.744189075446468
 21
-663.5774875941964
 31
0.0
  0
LINE
  5
398
102
{ACAD_XDICTIONARY
360
396
102
}
330
1F
100
AcDbEntity
  8
0
  6
Continuous
 62
     7
370
     0
100
AcDbLine
 10
550.0
 20
-30.0
 30
0.0
 11
624.0
 21
-30.0
 31
0.0
  0
LINE
  5
39B
102
{ACAD_XDICTIONARY
360
399
102
}
330
1F
100
AcDbEntity
  8
0
  6
Continuous
 62
     7
370
     0
100
AcDbLine
 10
624.0
 20
-30.0
 30
0.0
 11
624.0
 21
-72.5
 31
0.0
  0
LINE
  5
39E
102
{ACAD_XDICTIONARY
360
39C
102
}
330
1F
100
AcDbEntity
  8
0
  6
Continuous
 62
     7
370
     0
100
AcDbLine
 10
624.0
 20
-72.5
 30
0.0
 11
550.0
 21
-72.49999999999999
 31
0.0
  0
LINE
  5
3A1
102
{ACAD_XDICTIONARY
360
39F
102
}
330
1F
100
AcDbEntity
  8
0
  6
Continuous
 62
     7
370
     0
100
AcDbLine
 10
550.0
 20
-30.0
 30
0.0
 11
550.0
 21
-72.49999999999999
 31
0.0
  0
TEXT
  5
3A5
102
{ACAD_XDICTIONARY
360
3A3
102
}
330
1F
100
AcDbEntity
  8
0
  6
Continuous
 62
     7
100
AcDbText
 10
558.3233165931136
 20
-51.47932554481798
 30
0.0
 40
4.656000137329102
  1
T.A et couple moteur
  7
_TCW_TXTSTY_1
 11
558.3233165931136
 21
-46.82332540748888
 31
0.0
100
AcDbText
 73
     3
  0
LINE
  5
3A8
102
{ACAD_XDICTIONARY
360
3A6
102
}
330
1F
100
AcDbEntity
  8
0
  6
Continuous
 62
     7
370
     0
100
AcDbLine
 10
550.0
 20
-85.0
 30
0.0
 11
624.0
 21
-85.0
 31
0.0
  0
LINE
  5
3AB
102
{ACAD_XDICTIONARY
360
3A9
102
}
330
1F
100
AcDbEntity
  8
0
  6
Continuous
 62
     7
370
     0
100
AcDbLine
 10
550.0
 20
-85.0
 30
0.0
 11
550.0
 21
-105.0
 31
0.0
  0
LINE
  5
3AE
102
{ACAD_XDICTIONARY
360
3AC
102
}
330
1F
100
AcDbEntity
  8
0
  6
Continuous
 62
     7
370
     0
100
AcDbLine
 10
550.0
 20
-105.0
 30
0.0
 11
624.0
 21
-105.0
 31
0.0
  0
LINE
  5
3B1
102
{ACAD_XDICTIONARY
360
3AF
102
}
330
1F
100
AcDbEntity
  8
0
  6
Continuous
 62
     7
370
     0
100
AcDbLine
 10
624.0
 20
-85.0
 30
0.0
 11
624.0
 21
-105.0
 31
0.0
  0
MTEXT
  5
3B4
102
{ACAD_XDICTIONARY
360
3B2
102
}
330
1F
100
AcDbEntity
  8
0
  6
Continuous
 62
     7
100
AcDbMText
 10
567.5669260305999
 20
-92.30641692733047
 30
0.0
 40
4.656000137329102
 41
0.0
 46
0.0
 71
     1
 72
     1
  1
{Supports pont\P}
  7
_TCW_TXTSTY_1
 73
     1
 44
1.0
  0
LINE
  5
3B7
102
{ACAD_XDICTIONARY
360
3B5
102
}
330
1F
100
AcDbEntity
  8
0
  6
Continuous
 62
     7
370
     0
100
AcDbLine
 10
211.6703747445579
 20
73.16777141139181
 30
0.0
 11
211.6703747445579
 21
70.16777141139181
 31
0.0
  0
LINE
  5
3BA
102
{ACAD_XDICTIONARY
360
3B8
102
}
330
1F
100
AcDbEntity
  8
0
  6
Continuous
 62
     7
370
     0
100
AcDbLine
 10
211.6703747445579
 20
70.16777141139181
 30
0.0
 11
231.6703747445579
 21
70.16777141139181
 31
0.0
  0
LINE
  5
3BD
102
{ACAD_XDICTIONARY
360
3BB
102
}
330
1F
100
AcDbEntity
  8
0
  6
Continuous
 62
     7
370
     0
100
AcDbLine
 10
231.6703747445579
 20
70.16777141139181
 30
0.0
 11
231.6703747445579
 21
73.16777141139181
 31
0.0
  0
LINE
  5
3C0
102
{ACAD_XDICTIONARY
360
3BE
102
}
330
1F
100
AcDbEntity
  8
0
  6
Continuous
 62
     7
370
     0
100
AcDbLine
 10
546.2306542511378
 20
66.15194531292028
 30
0.0
 11
546.1235796596006
 21
63.15385674987763
 31
0.0
  0
LINE
  5
3C3
102
{ACAD_XDICTIONARY
360
3C1
102
}
330
1F
100
AcDbEntity
  8
0
  6
Continuous
 62
     7
370
     0
100
AcDbLine
 10
546.1235796596006
 20
63.15385674987763
 30
0.0
 11
566.104564077507
 21
62.28192688378496
 31
0.0
  0
LINE
  5
3C6
102
{ACAD_XDICTIONARY
360
3C4
102
}
330
1F
100
AcDbEntity
  8
0
  6
Continuous
 62
     7
370
     0
100
AcDbLine
 10
566.104564077507
 20
62.28192688378496
 30
0.0
 11
566.2698065702026
 21
65.38774035160002
 31
0.0
  0
LINE
  5
3C9
102
{ACAD_XDICTIONARY
360
3C7
102
}
330
1F
100
AcDbEntity
  8
0
  6
Continuous
 62
     7
370
     0
100
AcDbLine
 10
637.7566678002917
 20
19.67342412818176
 30
0.0
 11
637.7672817579042
 21
62.38399029708573
 31
0.0
  0
LINE
  5
3CC
102
{ACAD_REACTORS
330
3E0
330
3E0
102
}
102
{ACAD_XDICTIONARY
360
3CA
102
}
330
1F
100
AcDbEntity
  8
0
  6
Continuous
 62
     7
370
     0
100
AcDbLine
 10
221.0109832558098
 20
6.444523574460767
 30
0.0
 11
-78.9890167441902
 21
6.444523574460804
 31
0.0
  0
DIMENSION
  5
3CF
102
{ACAD_XDICTIONARY
360
3CD
102
}
330
1F
100
AcDbEntity
  8
0
  6
Continuous
 62
     7
100
AcDbDimension
  2
*D9
 10
35.95535101600711
 20
6.66275650554553
 30
0.0
 11
35.91289519125471
 21
24.62157309363807
 31
0.0
 70
    33
  1
<>
 71
     5
 42
35.91773354440967
 73
     0
 74
     0
 75
     0
  3
Standard
100
AcDbAlignedDimension
 13
43.00498649948344
 23
42.59725622086361
 33
0.0
 14
43.08989814898823
 24
6.679623044678536
 34
0.0
1001
ACAD
1000
DSTYLE
1002
{
1070
   285
1070
     1
1070
     4
1000

1070
    41
1040
5.0
1070
   176
1070
     7
1070
   177
1070
     7
1070
   178
1070
     7
1070
    43
1040
10.0
1070
    44
1040
3.0
1070
    42
1040
1.5
1070
   147
1040
1.5
1070
   272
1070
     4
1070
    74
1070
     1
1070
   140
1040
3.0
1070
    78
1070
     0
1070
    70
1070
     7
1002
}
  0
DIMENSION
  5
3DF
102
{ACAD_REACTORS
330
3E0
102
}
102
{ACAD_XDICTIONARY
360
3DD
102
}
330
1F
100
AcDbEntity
  8
0
  6
Continuous
 62
     7
100
AcDbDimension
  2
*D10
 10
51.94226104320339
 20
24.2143623299619
 30
0.0
 11
140.2059817457823
 21
10.67933425856412
 31
0.0
 70
    34
  1
<>
 71
     5
 42
0.1047197551196602
 73
     0
 74
     0
 75
     0
  3
Standard
100
AcDb2LineAngularDimension
 13
221.0109832558098
 23
6.444523574460767
 33
0.0
 14
-78.9890167441902
 24
6.444523574460803
 34
0.0
 15
221.0109832558098
 25
6.444523574460774
 35
0.0
 16
140.2921963761439
 26
12.08893100490355
 36
0.0
1001
ACAD
1000
DSTYLE
1002
{
1070
   179
1070
     2
1070
     4
1000

1070
    41
1040
5.0
1070
   176
1070
     7
1070
   177
1070
     7
1070
   178
1070
     7
1070
    43
1040
10.0
1070
    44
1040
3.0
1070
    42
1040
1.5
1070
   147
1040
1.5
1070
     3
1000

1070
   272
1070
     4
1070
    74
1070
     1
1070
   140
1040
3.0
1070
    78
1070
     0
1070
    70
1070
     7
1002
}
  0
LINE
  5
3F1
102
{ACAD_XDICTIONARY
360
3EF
102
}
330
1F
100
AcDbEntity
  8
0
  6
Continuous
 62
     7
370
    -2
100
AcDbLine
 10
168.3011121035139
 20
-106.773800439967
 30
0.0
 11
168.3011121035139
 21
-106.773800439967
 31
0.0
  0
VIEWPORT
  5
3F2
330
1B
100
AcDbEntity
 67
     1
  8
0
100
AcDbViewport
 10
148.5
 20
105.0
 30
0.0
 40
297.0
 41
210.0
 68
     1
 69
     1
 12
148.5
 22
105.0
 13
0.0
 23
0.0
 14
5.0
 24
5.0
 15
5.0
 25
5.0
 16
0.0
 26
0.0
 36
1.0
 17
0.0
 27
0.0
 37
0.0
 42
50.0
 43
0.0
 44
0.0
 45
210.0
 50
0.0
 51
0.0
 72
  1000
 90
    33312
  1

281
     0
 71
     1
 74
     0
110
0.0
120
0.0
130
0.0
111
1.0
121
0.0
131
0.0
112
0.0
122
1.0
132
0.0
 79
     0
146
0.0
170
     0
 61
     5
292
     1
282
     1
141
0.0
142
0.0
 63
   256
  0
ENDSEC
  0
SECTION
  2
OBJECTS
  0
DICTIONARY
  5
C
330
0
100
AcDbDictionary
281
     1
  3
ACAD_GROUP
350
D
  3
ACAD_LAYOUT
350
1A
  3
ACAD_MLEADERSTYLE
350
3F8
  3
ACAD_MLINESTYLE
350
17
  3
ACAD_PLOTSETTINGS
350
19
  3
ACAD_PLOTSTYLENAME
350
E
  3
ACAD_SCALELIST
350
7F
  3
ACAD_TABLESTYLE
350
4B
  3
ACAD_VISUALSTYLE
350
2A
  3
ACDB_RECOMPOSE_DATA
350
3F7
  3
AcDbVariableDictionary
350
3F3
  0
DICTIONARY
  5
4D
330
4F
100
AcDbDictionary
280
     1
281
     1
  3
TC_OPTIONAL_DATA
360
4E
  0
DICTIONARY
  5
50
330
52
100
AcDbDictionary
280
     1
281
     1
  3
TC_OPTIONAL_DATA
360
51
  0
DICTIONARY
  5
53
330
55
100
AcDbDictionary
280
     1
281
     1
  3
TC_OPTIONAL_DATA
360
54
  0
DICTIONARY
  5
56
330
58
100
AcDbDictionary
280
     1
281
     1
  3
TC_OPTIONAL_DATA
360
57
  0
DICTIONARY
  5
59
330
5B
100
AcDbDictionary
280
     1
281
     1
  3
TC_OPTIONAL_DATA
360
5A
  0
DICTIONARY
  5
5C
330
5E
100
AcDbDictionary
280
     1
281
     1
  3
TC_OPTIONAL_DATA
360
5D
  0
DICTIONARY
  5
5F
330
61
100
AcDbDictionary
280
     1
281
     1
  3
TC_OPTIONAL_DATA
360
60
  0
DICTIONARY
  5
62
330
64
100
AcDbDictionary
280
     1
281
     1
  3
TC_OPTIONAL_DATA
360
63
  0
DICTIONARY
  5
65
330
67
100
AcDbDictionary
280
     1
281
     1
  3
TC_OPTIONAL_DATA
360
66
  0
DICTIONARY
  5
68
330
6A
100
AcDbDictionary
280
     1
281
     1
  3
TC_OPTIONAL_DATA
360
69
  0
DICTIONARY
  5
6B
330
6D
100
AcDbDictionary
280
     1
281
     1
  3
TC_OPTIONAL_DATA
360
6C
  0
DICTIONARY
  5
6E
330
70
100
AcDbDictionary
280
     1
281
     1
  3
TC_OPTIONAL_DATA
360
6F
  0
DICTIONARY
  5
71
330
73
100
AcDbDictionary
280
     1
281
     1
  3
TC_OPTIONAL_DATA
360
72
  0
DICTIONARY
  5
74
330
76
100
AcDbDictionary
280
     1
281
     1
  3
TC_OPTIONAL_DATA
360
75
  0
DICTIONARY
  5
77
330
79
100
AcDbDictionary
280
     1
281
     1
  3
TC_OPTIONAL_DATA
360
78
  0
DICTIONARY
  5
7A
330
7C
100
AcDbDictionary
280
     1
281
     1
  3
TC_OPTIONAL_DATA
360
7B
  0
DICTIONARY
  5
7D
330
A1
100
AcDbDictionary
280
     1
281
     1
  3
TC_OPTIONAL_DATA
360
7E
  0
DICTIONARY
  5
A2
330
A4
100
AcDbDictionary
280
     1
281
     1
  3
TC_OPTIONAL_DATA
360
A3
  0
DICTIONARY
  5
A5
330
A7
100
AcDbDictionary
280
     1
281
     1
  3
TC_OPTIONAL_DATA
360
A6
  0
DICTIONARY
  5
A8
330
AA
100
AcDbDictionary
280
     1
281
     1
  3
ACAD_DIMASSOC
360
AB
  3
TC_OPTIONAL_DATA
360
A9
  0
DICTIONARY
  5
15A
330
15C
100
AcDbDictionary
280
     1
281
     1
  3
TC_OPTIONAL_DATA
360
15B
  0
DICTIONARY
  5
15D
330
15F
100
AcDbDictionary
280
     1
281
     1
  3
TC_OPTIONAL_DATA
360
15E
  0
DICTIONARY
  5
1E4
330
1E6
100
AcDbDictionary
280
     1
281
     1
  3
TC_OPTIONAL_DATA
360
1E5
  0
DICTIONARY
  5
1E7
330
1E9
100
AcDbDictionary
280
     1
281
     1
  3
TC_OPTIONAL_DATA
360
1E8
  0
DICTIONARY
  5
1EA
330
1EC
100
AcDbDictionary
280
     1
281
     1
  3
TC_OPTIONAL_DATA
360
1EB
  0
DICTIONARY
  5
1ED
330
1EF
100
AcDbDictionary
280
     1
281
     1
  3
TC_OPTIONAL_DATA
360
1EE
  0
DICTIONARY
  5
1F0
330
1F2
100
AcDbDictionary
280
     1
281
     1
  3
TC_OPTIONAL_DATA
360
1F1
  0
DICTIONARY
  5
1F3
330
1F5
100
AcDbDictionary
280
     1
281
     1
  3
TC_OPTIONAL_DATA
360
1F4
  0
DICTIONARY
  5
2C3
330
2C5
100
AcDbDictionary
280
     1
281
     1
  3
ACAD_DIMASSOC
360
2C6
  3
TC_OPTIONAL_DATA
360
2C4
  0
DICTIONARY
  5
2D4
330
2D6
100
AcDbDictionary
280
     1
281
     1
  3
TC_OPTIONAL_DATA
360
2D5
  0
DICTIONARY
  5
2E3
330
2E5
100
AcDbDictionary
280
     1
281
     1
  3
TC_OPTIONAL_DATA
360
2E4
  0
DICTIONARY
  5
2E6
330
2E8
100
AcDbDictionary
280
     1
281
     1
  3
TC_OPTIONAL_DATA
360
2E7
  0
DICTIONARY
  5
2E9
330
2EB
100
AcDbDictionary
280
     1
281
     1
  3
TC_OPTIONAL_DATA
360
2EA
  0
DICTIONARY
  5
2EC
330
2EE
100
AcDbDictionary
280
     1
281
     1
  3
TC_OPTIONAL_DATA
360
2ED
  0
DICTIONARY
  5
2EF
330
2F1
100
AcDbDictionary
280
     1
281
     1
  3
TC_OPTIONAL_DATA
360
2F0
  0
DICTIONARY
  5
2F5
330
2F7
100
AcDbDictionary
280
     1
281
     1
  3
TC_OPTIONAL_DATA
360
2F6
  0
DICTIONARY
  5
2F8
330
2FA
100
AcDbDictionary
280
     1
281
     1
  3
TC_OPTIONAL_DATA
360
2F9
  0
DICTIONARY
  5
2FB
330
2FD
100
AcDbDictionary
280
     1
281
     1
  3
TC_OPTIONAL_DATA
360
2FC
  0
DICTIONARY
  5
2FE
330
300
100
AcDbDictionary
280
     1
281
     1
  3
TC_OPTIONAL_DATA
360
2FF
  0
DICTIONARY
  5
301
330
303
100
AcDbDictionary
280
     1
281
     1
  3
TC_OPTIONAL_DATA
360
302
  0
DICTIONARY
  5
307
330
309
100
AcDbDictionary
280
     1
281
     1
  3
TC_OPTIONAL_DATA
360
308
  0
DICTIONARY
  5
30A
330
30C
100
AcDbDictionary
280
     1
281
     1
  3
TC_OPTIONAL_DATA
360
30B
  0
DICTIONARY
  5
30D
330
30F
100
AcDbDictionary
280
     1
281
     1
  3
TC_OPTIONAL_DATA
360
30E
  0
DICTIONARY
  5
310
330
312
100
AcDbDictionary
280
     1
281
     1
  3
TC_OPTIONAL_DATA
360
311
  0
DICTIONARY
  5
316
330
318
100
AcDbDictionary
280
     1
281
     1
  3
TC_OPTIONAL_DATA
360
317
  0
DICTIONARY
  5
319
330
31B
100
AcDbDictionary
280
     1
281
     1
  3
TC_OPTIONAL_DATA
360
31A
  0
DICTIONARY
  5
31C
330
31E
100
AcDbDictionary
280
     1
281
     1
  3
TC_OPTIONAL_DATA
360
31D
  0
DICTIONARY
  5
31F
330
321
100
AcDbDictionary
280
     1
281
     1
  3
TC_OPTIONAL_DATA
360
320
  0
DICTIONARY
  5
322
330
324
100
AcDbDictionary
280
     1
281
     1
  3
TC_OPTIONAL_DATA
360
323
  0
DICTIONARY
  5
325
330
327
100
AcDbDictionary
280
     1
281
     1
  3
TC_OPTIONAL_DATA
360
326
  0
DICTIONARY
  5
328
330
32A
100
AcDbDictionary
280
     1
281
     1
  3
TC_OPTIONAL_DATA
360
329
  0
DICTIONARY
  5
32B
330
32D
100
AcDbDictionary
280
     1
281
     1
  3
TC_OPTIONAL_DATA
360
32C
  0
DICTIONARY
  5
32E
330
330
100
AcDbDictionary
280
     1
281
     1
  3
TC_OPTIONAL_DATA
360
32F
  0
DICTIONARY
  5
331
330
333
100
AcDbDictionary
280
     1
281
     1
  3
TC_OPTIONAL_DATA
360
332
  0
DICTIONARY
  5
334
330
336
100
AcDbDictionary
280
     1
281
     1
  3
TC_OPTIONAL_DATA
360
335
  0
DICTIONARY
  5
337
330
339
100
AcDbDictionary
280
     1
281
     1
  3
TC_OPTIONAL_DATA
360
338
  0
DICTIONARY
  5
33A
330
33C
100
AcDbDictionary
280
     1
281
     1
  3
ACAD_DIMASSOC
360
33D
  3
TC_OPTIONAL_DATA
360
33B
  0
DICTIONARY
  5
34B
330
34D
100
AcDbDictionary
280
     1
281
     1
  3
TC_OPTIONAL_DATA
360
34C
  0
DICTIONARY
  5
35B
330
35D
100
AcDbDictionary
280
     1
281
     1
  3
ACAD_DIMASSOC
360
35E
  3
TC_OPTIONAL_DATA
360
35C
  0
DICTIONARY
  5
36C
330
36E
100
AcDbDictionary
280
     1
281
     1
  3
ACAD_DIMASSOC
360
36F
  3
TC_OPTIONAL_DATA
360
36D
  0
DICTIONARY
  5
37D
330
37F
100
AcDbDictionary
280
     1
281
     1
  3
TC_OPTIONAL_DATA
360
37E
  0
DICTIONARY
  5
380
330
382
100
AcDbDictionary
280
     1
281
     1
  3
TC_OPTIONAL_DATA
360
381
  0
DICTIONARY
  5
383
330
385
100
AcDbDictionary
280
     1
281
     1
  3
ACAD_DIMASSOC
360
386
  3
TC_OPTIONAL_DATA
360
384
  0
DICTIONARY
  5
393
330
395
100
AcDbDictionary
280
     1
281
     1
  3
TC_OPTIONAL_DATA
360
394
  0
DICTIONARY
  5
396
330
398
100
AcDbDictionary
280
     1
281
     1
  3
TC_OPTIONAL_DATA
360
397
  0
DICTIONARY
  5
399
330
39B
100
AcDbDictionary
280
     1
281
     1
  3
TC_OPTIONAL_DATA
360
39A
  0
DICTIONARY
  5
39C
330
39E
100
AcDbDictionary
280
     1
281
     1
  3
TC_OPTIONAL_DATA
360
39D
  0
DICTIONARY
  5
39F
330
3A1
100
AcDbDictionary
280
     1
281
     1
  3
TC_OPTIONAL_DATA
360
3A0
  0
DICTIONARY
  5
3A3
330
3A5
100
AcDbDictionary
280
     1
281
     1
  3
TC_OPTIONAL_DATA
360
3A4
  0
DICTIONARY
  5
3A6
330
3A8
100
AcDbDictionary
280
     1
281
     1
  3
TC_OPTIONAL_DATA
360
3A7
  0
DICTIONARY
  5
3A9
330
3AB
100
AcDbDictionary
280
     1
281
     1
  3
TC_OPTIONAL_DATA
360
3AA
  0
DICTIONARY
  5
3AC
330
3AE
100
AcDbDictionary
280
     1
281
     1
  3
TC_OPTIONAL_DATA
360
3AD
  0
DICTIONARY
  5
3AF
330
3B1
100
AcDbDictionary
280
     1
281
     1
  3
TC_OPTIONAL_DATA
360
3B0
  0
DICTIONARY
  5
3B2
330
3B4
100
AcDbDictionary
280
     1
281
     1
  3
TC_OPTIONAL_DATA
360
3B3
  0
DICTIONARY
  5
3B5
330
3B7
100
AcDbDictionary
280
     1
281
     1
  3
TC_OPTIONAL_DATA
360
3B6
  0
DICTIONARY
  5
3B8
330
3BA
100
AcDbDictionary
280
     1
281
     1
  3
TC_OPTIONAL_DATA
360
3B9
  0
DICTIONARY
  5
3BB
330
3BD
100
AcDbDictionary
280
     1
281
     1
  3
TC_OPTIONAL_DATA
360
3BC
  0
DICTIONARY
  5
3BE
330
3C0
100
AcDbDictionary
280
     1
281
     1
  3
TC_OPTIONAL_DATA
360
3BF
  0
DICTIONARY
  5
3C1
330
3C3
100
AcDbDictionary
280
     1
281
     1
  3
TC_OPTIONAL_DATA
360
3C2
  0
DICTIONARY
  5
3C4
330
3C6
100
AcDbDictionary
280
     1
281
     1
  3
TC_OPTIONAL_DATA
360
3C5
  0
DICTIONARY
  5
3C7
330
3C9
100
AcDbDictionary
280
     1
281
     1
  3
TC_OPTIONAL_DATA
360
3C8
  0
DICTIONARY
  5
3CA
330
3CC
100
AcDbDictionary
280
     1
281
     1
  3
TC_OPTIONAL_DATA
360
3CB
  0
DICTIONARY
  5
3CD
330
3CF
100
AcDbDictionary
280
     1
281
     1
  3
TC_OPTIONAL_DATA
360
3CE
  0
DICTIONARY
  5
3DD
330
3DF
100
AcDbDictionary
280
     1
281
     1
  3
ACAD_DIMASSOC
360
3E0
  3
TC_OPTIONAL_DATA
360
3DE
  0
DICTIONARY
  5
3EF
330
3F1
100
AcDbDictionary
280
     1
281
     1
  3
TC_OPTIONAL_DATA
360
3F0
  0
DICTIONARY
  5
D
102
{ACAD_REACTORS
330
C
102
}
330
C
100
AcDbDictionary
281
     1
  3
Group_1
350
2C0
  3
Group_2
350
2F2
  3
Group_2_1
350
304
  3
Group_3
350
313
  0
DICTIONARY
  5
1A
102
{ACAD_REACTORS
330
C
102
}
330
C
100
AcDbDictionary
281
     1
  3
Model
350
22
  3
Paper 1
350
1E
  0
DICTIONARY
  5
3F8
102
{ACAD_REACTORS
330
C
102
}
330
C
100
AcDbDictionary
281
     1
  0
DICTIONARY
  5
17
102
{ACAD_REACTORS
330
C
102
}
330
C
100
AcDbDictionary
281
     1
  3
Standard
350
18
  0
DICTIONARY
  5
19
102
{ACAD_REACTORS
330
C
102
}
330
C
100
AcDbDictionary
281
     1
  0
ACDBDICTIONARYWDFLT
  5
E
102
{ACAD_REACTORS
330
C
102
}
330
C
100
AcDbDictionary
281
     1
  3
Normal
350
F
100
AcDbDictionaryWithDefault
340
F
  0
DICTIONARY
  5
7F
102
{ACAD_REACTORS
330
C
102
}
330
C
100
AcDbDictionary
281
     1
  3
A0
350
80
  3
A1
350
81
  3
A2
350
82
  3
A3
350
83
  3
A4
350
84
  3
A5
350
85
  3
A6
350
86
  3
A7
350
87
  3
A8
350
88
  3
A9
350
89
  3
B0
350
8A
  3
B1
350
8B
  3
B2
350
8C
  3
B3
350
8D
  3
B4
350
8E
  3
B5
350
8F
  3
B6
350
90
  3
B7
350
91
  3
B8
350
92
  3
B9
350
93
  3
C0
350
94
  3
C1
350
95
  3
C2
350
96
  3
C3
350
97
  3
C4
350
98
  3
C5
350
99
  3
C6
350
9A
  3
C7
350
9B
  3
C8
350
9C
  3
C9
350
9D
  3
D0
350
9E
  3
D1
350
9F
  3
D2
350
A0
  0
DICTIONARY
  5
4B
102
{ACAD_REACTORS
330
C
102
}
330
C
100
AcDbDictionary
281
     1
  3
Standard
350
4C
  0
DICTIONARY
  5
2A
102
{ACAD_REACTORS
330
C
102
}
330
C
100
AcDbDictionary
281
     1
  3
2dWireframe
350
2F
  3
3D Hidden
350
31
  3
3dWireframe
350
30
  3
Basic
350
32
  3
Brighten
350
36
  3
ColorChange
350
3A
  3
Conceptual
350
34
  3
Dim
350
35
  3
Facepattern
350
39
  3
Flat
350
2B
  3
FlatWithEdges
350
2C
  3
Gouraud
350
2D
  3
GouraudWithEdges
350
2E
  3
Linepattern
350
38
  3
Realistic
350
33
  3
Thicken
350
37
  0
XRECORD
  5
3F7
102
{ACAD_REACTORS
330
C
102
}
330
C
100
AcDbXrecord
280
     1
 90
        1
330
4C
  0
DICTIONARY
  5
3F3
102
{ACAD_REACTORS
330
C
102
}
330
C
100
AcDbDictionary
281
     1
  3
CANNOSCALE
350
3F4
  0
TCOPTIONALDATA
  5
4E
102
{ACAD_REACTORS
330
4D
102
}
330
4D
100
TcOptionalData
 70
     1
 70
   128
 90
        1
  1
#$AUX@_ToolInfo Properties
 70
     8
  1
CMD_LINE@
  0
TCOPTIONALDATA
  5
51
102
{ACAD_REACTORS
330
50
102
}
330
50
100
TcOptionalData
 70
     1
 70
   128
 90
        1
  1
#$AUX@_ToolInfo Properties
 70
     8
  1
CMD_LINE@
  0
TCOPTIONALDATA
  5
54
102
{ACAD_REACTORS
330
53
102
}
330
53
100
TcOptionalData
 70
     1
 70
   128
 90
        1
  1
#$AUX@_ToolInfo Properties
 70
     8
  1
CMD_LINE@
  0
TCOPTIONALDATA
  5
57
102
{ACAD_REACTORS
330
56
102
}
330
56
100
TcOptionalData
 70
     1
 70
   128
 90
        1
  1
#$AUX@_ToolInfo Properties
 70
     8
  1
CMD_LINE@
  0
TCOPTIONALDATA
  5
5A
102
{ACAD_REACTORS
330
59
102
}
330
59
100
TcOptionalData
 70
     1
 70
   128
 90
        1
  1
#$AUX@_ToolInfo Properties
 70
     8
  1
CMD_LINE@
  0
TCOPTIONALDATA
  5
5D
102
{ACAD_REACTORS
330
5C
102
}
330
5C
100
TcOptionalData
 70
     1
 70
   128
 90
        1
  1
#$AUX@_ToolInfo Properties
 70
     8
  1
CMD_LINE@
  0
TCOPTIONALDATA
  5
60
102
{ACAD_REACTORS
330
5F
102
}
330
5F
100
TcOptionalData
 70
     1
 70
   128
 90
        1
  1
#$AUX@_ToolInfo Properties
 70
     8
  1
CMD_LINE@
  0
TCOPTIONALDATA
  5
63
102
{ACAD_REACTORS
330
62
102
}
330
62
100
TcOptionalData
 70
     1
 70
   128
 90
        1
  1
#$AUX@_ToolInfo Properties
 70
     8
  1
CMD_LINE@
  0
TCOPTIONALDATA
  5
66
102
{ACAD_REACTORS
330
65
102
}
330
65
100
TcOptionalData
 70
     1
 70
   128
 90
        1
  1
#$AUX@_ToolInfo Properties
 70
     8
  1
CMD_LINE@
  0
TCOPTIONALDATA
  5
69
102
{ACAD_REACTORS
330
68
102
}
330
68
100
TcOptionalData
 70
     1
 70
   128
 90
        1
  1
#$AUX@_ToolInfo Properties
 70
     8
  1
CMD_LINE@
  0
TCOPTIONALDATA
  5
6C
102
{ACAD_REACTORS
330
6B
102
}
330
6B
100
TcOptionalData
 70
     1
 70
   128
 90
        1
  1
#$AUX@_ToolInfo Properties
 70
     8
  1
CMD_LINE@
  0
TCOPTIONALDATA
  5
6F
102
{ACAD_REACTORS
330
6E
102
}
330
6E
100
TcOptionalData
 70
     1
 70
   128
 90
        1
  1
#$AUX@_ToolInfo Properties
 70
     8
  1
CMD_LINE@
  0
TCOPTIONALDATA
  5
72
102
{ACAD_REACTORS
330
71
102
}
330
71
100
TcOptionalData
 70
     1
 70
   128
 90
        1
  1
#$AUX@_ToolInfo Properties
 70
     8
  1
CMD_LINE@
  0
TCOPTIONALDATA
  5
75
102
{ACAD_REACTORS
330
74
102
}
330
74
100
TcOptionalData
 70
     1
 70
   128
 90
        1
  1
#$AUX@_ToolInfo Properties
 70
     8
  1
CMD_LINE@
  0
TCOPTIONALDATA
  5
78
102
{ACAD_REACTORS
330
77
102
}
330
77
100
TcOptionalData
 70
     1
 70
   128
 90
        1
  1
#$AUX@_ToolInfo Properties
 70
     8
  1
CMD_LINE@
  0
TCOPTIONALDATA
  5
7B
102
{ACAD_REACTORS
330
7A
102
}
330
7A
100
TcOptionalData
 70
     1
 70
   128
 90
        1
  1
#$AUX@_ToolInfo Properties
 70
     8
  1
CMD_LINE@
  0
TCOPTIONALDATA
  5
7E
102
{ACAD_REACTORS
330
7D
102
}
330
7D
100
TcOptionalData
 70
     1
 70
   144
 90
        1
  1
#$AUX@_ToolInfo Properties
 70
     8
  1
CMD_TEXT@
  1
Times New Roman
 70
     0
  0
TCOPTIONALDATA
  5
A3
102
{ACAD_REACTORS
330
A2
102
}
330
A2
100
TcOptionalData
 70
     1
 70
   128
 90
        1
  1
#$AUX@_ToolInfo Properties
 70
     8
  1
CMD_LINE@
  0
TCOPTIONALDATA
  5
A6
102
{ACAD_REACTORS
330
A5
102
}
330
A5
100
TcOptionalData
 70
     1
 70
   128
 90
        1
  1
#$AUX@_ToolInfo Properties
 70
     8
  1
CMD_LINE@
  0
DIMASSOC
  5
AB
102
{ACAD_REACTORS
330
A8
102
}
330
A8
100
AcDbDimAssoc
330
AA
 90
        0
 70
     0
 71
     1
  0
TCOPTIONALDATA
  5
A9
102
{ACAD_REACTORS
330
A8
102
}
330
A8
100
TcOptionalData
 70
     1
 70
   128
 90
        1
  1
#$AUX@_ToolInfo Properties
 70
     8
  1
CMD_PARALLELDIM@
  0
TCOPTIONALDATA
  5
15B
102
{ACAD_REACTORS
330
15A
102
}
330
15A
100
TcOptionalData
 70
     1
 70
   128
 90
        1
  1
#$AUX@_ToolInfo Properties
 70
     8
  1
CMD_LINE@
  0
TCOPTIONALDATA
  5
15E
102
{ACAD_REACTORS
330
15D
102
}
330
15D
100
TcOptionalData
 70
     1
 70
   128
 90
        1
  1
#$AUX@_ToolInfo Properties
 70
     8
  1
CMD_LINE@
  0
TCOPTIONALDATA
  5
1E5
102
{ACAD_REACTORS
330
1E4
102
}
330
1E4
100
TcOptionalData
 70
     1
 70
   128
 90
        1
  1
#$AUX@_ToolInfo Properties
 70
     8
  1
CMD_CENTERPTCIRCLE@
  0
TCOPTIONALDATA
  5
1E8
102
{ACAD_REACTORS
330
1E7
102
}
330
1E7
100
TcOptionalData
 70
     1
 70
   128
 90
        1
  1
#$AUX@_ToolInfo Properties
 70
     8
  1
CMD_CENTERPTCIRCLE@
  0
TCOPTIONALDATA
  5
1EB
102
{ACAD_REACTORS
330
1EA
102
}
330
1EA
100
TcOptionalData
 70
     1
 70
   128
 90
        1
  1
#$AUX@_ToolInfo Properties
 70
     8
  1
CMD_LINE@
  0
TCOPTIONALDATA
  5
1EE
102
{ACAD_REACTORS
330
1ED
102
}
330
1ED
100
TcOptionalData
 70
     1
 70
   128
 90
        1
  1
#$AUX@_ToolInfo Properties
 70
     8
  1
CMD_TRIPLEPTARC@
  0
TCOPTIONALDATA
  5
1F1
102
{ACAD_REACTORS
330
1F0
102
}
330
1F0
100
TcOptionalData
 70
     1
 70
   128
 90
        1
  1
#$AUX@_ToolInfo Properties
 70
     8
  1
CMD_LINE@
  0
TCOPTIONALDATA
  5
1F4
102
{ACAD_REACTORS
330
1F3
102
}
330
1F3
100
TcOptionalData
 70
     1
 70
   128
 90
        1
  1
#$AUX@_ToolInfo Properties
 70
     8
  1
CMD_LINE@
  0
DIMASSOC
  5
2C6
102
{ACAD_REACTORS
330
2C3
102
}
330
2C3
100
AcDbDimAssoc
330
2C5
 90
        1
 70
     0
 71
     1
  1
AcDbOsnapPointRef
 72
     1
331
1F5
 73
     2
 91
        0
 40
1.0
 10
0.0
 20
0.0
 30
2.000000000000000E+50
 75
     0
  0
TCOPTIONALDATA
  5
2C4
102
{ACAD_REACTORS
330
2C3
102
}
330
2C3
100
TcOptionalData
 70
     1
 70
   128
 90
        1
  1
#$AUX@_ToolInfo Properties
 70
     8
  1
CMD_PARALLELDIM@
  0
TCOPTIONALDATA
  5
2D5
102
{ACAD_REACTORS
330
2D4
102
}
330
2D4
100
TcOptionalData
 70
     1
 70
   128
 90
        1
  1
#$AUX@_ToolInfo Properties
 70
     8
  1
CMD_PARALLELDIM@
  0
TCOPTIONALDATA
  5
2E4
102
{ACAD_REACTORS
330
2E3
102
}
330
2E3
100
TcOptionalData
 70
     1
 70
   128
 90
        1
  1
#$AUX@_ToolInfo Properties
 70
     8
  1
CMD_LINE@
  0
TCOPTIONALDATA
  5
2E7
102
{ACAD_REACTORS
330
2E6
102
}
330
2E6
100
TcOptionalData
 70
     1
 70
   128
 90
        1
  1
#$AUX@_ToolInfo Properties
 70
     8
  1
CMD_LINE@
  0
TCOPTIONALDATA
  5
2EA
102
{ACAD_REACTORS
330
2E9
102
}
330
2E9
100
TcOptionalData
 70
     1
 70
   128
 90
        1
  1
#$AUX@_ToolInfo Properties
 70
     8
  1
CMD_LINE@
  0
TCOPTIONALDATA
  5
2ED
102
{ACAD_REACTORS
330
2EC
102
}
330
2EC
100
TcOptionalData
 70
     1
 70
   128
 90
        1
  1
#$AUX@_ToolInfo Properties
 70
     8
  1
CMD_LINE@
  0
TCOPTIONALDATA
  5
2F0
102
{ACAD_REACTORS
330
2EF
102
}
330
2EF
100
TcOptionalData
 70
     1
 70
   128
 90
        1
  1
#$AUX@_ToolInfo Properties
 70
     8
  1
CMD_LINE@
  0
TCOPTIONALDATA
  5
2F6
102
{ACAD_REACTORS
330
2F5
102
}
330
2F5
100
TcOptionalData
 70
     1
 70
   128
 90
        1
  1
#$AUX@_ToolInfo Properties
 70
     8
  1
CMD_LINE@
  0
TCOPTIONALDATA
  5
2F9
102
{ACAD_REACTORS
330
2F8
102
}
330
2F8
100
TcOptionalData
 70
     1
 70
   128
 90
        1
  1
#$AUX@_ToolInfo Properties
 70
     8
  1
CMD_LINE@
  0
TCOPTIONALDATA
  5
2FC
102
{ACAD_REACTORS
330
2FB
102
}
330
2FB
100
TcOptionalData
 70
     1
 70
   128
 90
        1
  1
#$AUX@_ToolInfo Properties
 70
     8
  1
CMD_LINE@
  0
TCOPTIONALDATA
  5
2FF
102
{ACAD_REACTORS
330
2FE
102
}
330
2FE
100
TcOptionalData
 70
     1
 70
   128
 90
        1
  1
#$AUX@_ToolInfo Properties
 70
     8
  1
CMD_LINE@
  0
TCOPTIONALDATA
  5
302
102
{ACAD_REACTORS
330
301
102
}
330
301
100
TcOptionalData
 70
     1
 70
   128
 90
        1
  1
#$AUX@_ToolInfo Properties
 70
     8
  1
CMD_LINE@
  0
TCOPTIONALDATA
  5
308
102
{ACAD_REACTORS
330
307
102
}
330
307
100
TcOptionalData
 70
     1
 70
   128
 90
        1
  1
#$AUX@_ToolInfo Properties
 70
     8
  1
CMD_LINE@
  0
TCOPTIONALDATA
  5
30B
102
{ACAD_REACTORS
330
30A
102
}
330
30A
100
TcOptionalData
 70
     1
 70
   128
 90
        1
  1
#$AUX@_ToolInfo Properties
 70
     8
  1
CMD_LINE@
  0
TCOPTIONALDATA
  5
30E
102
{ACAD_REACTORS
330
30D
102
}
330
30D
100
TcOptionalData
 70
     1
 70
   128
 90
        1
  1
#$AUX@_ToolInfo Properties
 70
     8
  1
CMD_LINE@
  0
TCOPTIONALDATA
  5
311
102
{ACAD_REACTORS
330
310
102
}
330
310
100
TcOptionalData
 70
     1
 70
   128
 90
        1
  1
#$AUX@_ToolInfo Properties
 70
     8
  1
CMD_LINE@
  0
TCOPTIONALDATA
  5
317
102
{ACAD_REACTORS
330
316
102
}
330
316
100
TcOptionalData
 70
     1
 70
   128
 90
        1
  1
#$AUX@_ToolInfo Properties
 70
     8
  1
CMD_LINE@
  0
TCOPTIONALDATA
  5
31A
102
{ACAD_REACTORS
330
319
102
}
330
319
100
TcOptionalData
 70
     1
 70
   128
 90
        1
  1
#$AUX@_ToolInfo Properties
 70
     8
  1
CMD_LINE@
  0
TCOPTIONALDATA
  5
31D
102
{ACAD_REACTORS
330
31C
102
}
330
31C
100
TcOptionalData
 70
     1
 70
   128
 90
        1
  1
#$AUX@_ToolInfo Properties
 70
     8
  1
CMD_LINE@
  0
TCOPTIONALDATA
  5
320
102
{ACAD_REACTORS
330
31F
102
}
330
31F
100
TcOptionalData
 70
     1
 70
   128
 90
        1
  1
#$AUX@_ToolInfo Properties
 70
     8
  1
CMD_LINE@
  0
TCOPTIONALDATA
  5
323
102
{ACAD_REACTORS
330
322
102
}
330
322
100
TcOptionalData
 70
     1
 70
   128
 90
        1
  1
#$AUX@_ToolInfo Properties
 70
     8
  1
CMD_LINE@
  0
TCOPTIONALDATA
  5
326
102
{ACAD_REACTORS
330
325
102
}
330
325
100
TcOptionalData
 70
     1
 70
   128
 90
        1
  1
#$AUX@_ToolInfo Properties
 70
     8
  1
CMD_LINE@
  0
TCOPTIONALDATA
  5
329
102
{ACAD_REACTORS
330
328
102
}
330
328
100
TcOptionalData
 70
     1
 70
   128
 90
        1
  1
#$AUX@_ToolInfo Properties
 70
     8
  1
CMD_LINE@
  0
TCOPTIONALDATA
  5
32C
102
{ACAD_REACTORS
330
32B
102
}
330
32B
100
TcOptionalData
 70
     1
 70
   128
 90
        1
  1
#$AUX@_ToolInfo Properties
 70
     8
  1
CMD_LINE@
  0
TCOPTIONALDATA
  5
32F
102
{ACAD_REACTORS
330
32E
102
}
330
32E
100
TcOptionalData
 70
     1
 70
   128
 90
        1
  1
#$AUX@_ToolInfo Properties
 70
     8
  1
CMD_LINE@
  0
TCOPTIONALDATA
  5
332
102
{ACAD_REACTORS
330
331
102
}
330
331
100
TcOptionalData
 70
     1
 70
   128
 90
        1
  1
#$AUX@_ToolInfo Properties
 70
     8
  1
CMD_LINE@
  0
TCOPTIONALDATA
  5
335
102
{ACAD_REACTORS
330
334
102
}
330
334
100
TcOptionalData
 70
     1
 70
   128
 90
        1
  1
#$AUX@_ToolInfo Properties
 70
     8
  1
CMD_LINE@
  0
TCOPTIONALDATA
  5
338
102
{ACAD_REACTORS
330
337
102
}
330
337
100
TcOptionalData
 70
     1
 70
   128
 90
        1
  1
#$AUX@_ToolInfo Properties
 70
     8
  1
CMD_LINE@
  0
DIMASSOC
  5
33D
102
{ACAD_REACTORS
330
33A
102
}
330
33A
100
AcDbDimAssoc
330
33C
 90
        3
 70
     0
 71
     1
  1
AcDbOsnapPointRef
 72
     1
331
2E8
 73
     2
 91
        0
 40
1.0
 10
0.0
 20
0.0
 30
2.000000000000000E+50
 75
     0
  1
AcDbOsnapPointRef
 72
     1
331
2EE
 73
     2
 91
        0
 40
1.0
 10
0.0
 20
0.0
 30
2.000000000000000E+50
 75
     0
  0
TCOPTIONALDATA
  5
33B
102
{ACAD_REACTORS
330
33A
102
}
330
33A
100
TcOptionalData
 70
     1
 70
   128
 90
        1
  1
#$AUX@_ToolInfo Properties
 70
     8
  1
CMD_PARALLELDIM@
  0
TCOPTIONALDATA
  5
34C
102
{ACAD_REACTORS
330
34B
102
}
330
34B
100
TcOptionalData
 70
     1
 70
   128
 90
        1
  1
#$AUX@_ToolInfo Properties
 70
     8
  1
CMD_PARALLELDIM@
  0
DIMASSOC
  5
35E
102
{ACAD_REACTORS
330
35B
102
}
330
35B
100
AcDbDimAssoc
330
35D
 90
        3
 70
     0
 71
     1
  1
AcDbOsnapPointRef
 72
     1
331
2E5
 73
     2
 91
        0
 40
1.0
 10
0.0
 20
0.0
 30
2.000000000000000E+50
 75
     0
  1
AcDbOsnapPointRef
 72
    13
331
2F7
 73
     2
 91
        0
 40
13.0
 10
0.0
 20
0.0
 30
2.000000000000000E+50
 75
     0
  0
TCOPTIONALDATA
  5
35C
102
{ACAD_REACTORS
330
35B
102
}
330
35B
100
TcOptionalData
 70
     1
 70
   128
 90
        1
  1
#$AUX@_ToolInfo Properties
 70
     8
  1
CMD_PARALLELDIM@
  0
DIMASSOC
  5
36F
102
{ACAD_REACTORS
330
36C
102
}
330
36C
100
AcDbDimAssoc
330
36E
 90
        3
 70
     0
 71
     1
  1
AcDbOsnapPointRef
 72
     1
331
30F
 73
     2
 91
        0
 40
1.0
 10
0.0
 20
0.0
 30
2.000000000000000E+50
 75
     0
  1
AcDbOsnapPointRef
 72
     1
331
30C
 73
     2
 91
        0
 40
1.0
 10
0.0
 20
0.0
 30
2.000000000000000E+50
 75
     0
  0
TCOPTIONALDATA
  5
36D
102
{ACAD_REACTORS
330
36C
102
}
330
36C
100
TcOptionalData
 70
     1
 70
   128
 90
        1
  1
#$AUX@_ToolInfo Properties
 70
     8
  1
CMD_PARALLELDIM@
  0
TCOPTIONALDATA
  5
37E
102
{ACAD_REACTORS
330
37D
102
}
330
37D
100
TcOptionalData
 70
     1
 70
   128
 90
        1
  1
#$AUX@_ToolInfo Properties
 70
     8
  1
CMD_LINE@
  0
TCOPTIONALDATA
  5
381
102
{ACAD_REACTORS
330
380
102
}
330
380
100
TcOptionalData
 70
     1
 70
   128
 90
        1
  1
#$AUX@_ToolInfo Properties
 70
     8
  1
CMD_LINE@
  0
DIMASSOC
  5
386
102
{ACAD_REACTORS
330
383
102
}
330
383
100
AcDbDimAssoc
330
385
 90
        1
 70
     0
 71
     1
  1
AcDbOsnapPointRef
 72
    13
331
382
 73
     2
 91
        0
 40
13.0
 10
0.0
 20
0.0
 30
2.000000000000000E+50
 75
     0
  0
TCOPTIONALDATA
  5
384
102
{ACAD_REACTORS
330
383
102
}
330
383
100
TcOptionalData
 70
     1
 70
   128
 90
        1
  1
#$AUX@_ToolInfo Properties
 70
     8
  1
CMD_PARALLELDIM@
  0
TCOPTIONALDATA
  5
394
102
{ACAD_REACTORS
330
393
102
}
330
393
100
TcOptionalData
 70
     1
 70
   128
 90
        1
  1
#$AUX@_ToolInfo Properties
 70
     8
  1
CMD_LINE@
  0
TCOPTIONALDATA
  5
397
102
{ACAD_REACTORS
330
396
102
}
330
396
100
TcOptionalData
 70
     1
 70
   128
 90
        1
  1
#$AUX@_ToolInfo Properties
 70
     8
  1
CMD_LINE@
  0
TCOPTIONALDATA
  5
39A
102
{ACAD_REACTORS
330
399
102
}
330
399
100
TcOptionalData
 70
     1
 70
   128
 90
        1
  1
#$AUX@_ToolInfo Properties
 70
     8
  1
CMD_LINE@
  0
TCOPTIONALDATA
  5
39D
102
{ACAD_REACTORS
330
39C
102
}
330
39C
100
TcOptionalData
 70
     1
 70
   128
 90
        1
  1
#$AUX@_ToolInfo Properties
 70
     8
  1
CMD_LINE@
  0
TCOPTIONALDATA
  5
3A0
102
{ACAD_REACTORS
330
39F
102
}
330
39F
100
TcOptionalData
 70
     1
 70
   128
 90
        1
  1
#$AUX@_ToolInfo Properties
 70
     8
  1
CMD_LINE@
  0
TCOPTIONALDATA
  5
3A4
102
{ACAD_REACTORS
330
3A3
102
}
330
3A3
100
TcOptionalData
 70
     1
 70
   144
 90
        1
  1
#$AUX@_ToolInfo Properties
 70
     8
  1
CMD_TEXT@
  1
Times New Roman
 70
     0
  0
TCOPTIONALDATA
  5
3A7
102
{ACAD_REACTORS
330
3A6
102
}
330
3A6
100
TcOptionalData
 70
     1
 70
   128
 90
        1
  1
#$AUX@_ToolInfo Properties
 70
     8
  1
CMD_LINE@
  0
TCOPTIONALDATA
  5
3AA
102
{ACAD_REACTORS
330
3A9
102
}
330
3A9
100
TcOptionalData
 70
     1
 70
   128
 90
        1
  1
#$AUX@_ToolInfo Properties
 70
     8
  1
CMD_LINE@
  0
TCOPTIONALDATA
  5
3AD
102
{ACAD_REACTORS
330
3AC
102
}
330
3AC
100
TcOptionalData
 70
     1
 70
   128
 90
        1
  1
#$AUX@_ToolInfo Properties
 70
     8
  1
CMD_LINE@
  0
TCOPTIONALDATA
  5
3B0
102
{ACAD_REACTORS
330
3AF
102
}
330
3AF
100
TcOptionalData
 70
     1
 70
   128
 90
        1
  1
#$AUX@_ToolInfo Properties
 70
     8
  1
CMD_LINE@
  0
TCOPTIONALDATA
  5
3B3
102
{ACAD_REACTORS
330
3B2
102
}
330
3B2
100
TcOptionalData
 70
     1
 70
   144
 90
        1
  1
#$AUX@_ToolInfo Properties
 70
     8
  1
CMD_TEXT@
  1
Times New Roman
 70
     0
  0
TCOPTIONALDATA
  5
3B6
102
{ACAD_REACTORS
330
3B5
102
}
330
3B5
100
TcOptionalData
 70
     1
 70
   128
 90
        1
  1
#$AUX@_ToolInfo Properties
 70
     8
  1
CMD_LINE@
  0
TCOPTIONALDATA
  5
3B9
102
{ACAD_REACTORS
330
3B8
102
}
330
3B8
100
TcOptionalData
 70
     1
 70
   128
 90
        1
  1
#$AUX@_ToolInfo Properties
 70
     8
  1
CMD_LINE@
  0
TCOPTIONALDATA
  5
3BC
102
{ACAD_REACTORS
330
3BB
102
}
330
3BB
100
TcOptionalData
 70
     1
 70
   128
 90
        1
  1
#$AUX@_ToolInfo Properties
 70
     8
  1
CMD_LINE@
  0
TCOPTIONALDATA
  5
3BF
102
{ACAD_REACTORS
330
3BE
102
}
330
3BE
100
TcOptionalData
 70
     1
 70
   128
 90
        1
  1
#$AUX@_ToolInfo Properties
 70
     8
  1
CMD_LINE@
  0
TCOPTIONALDATA
  5
3C2
102
{ACAD_REACTORS
330
3C1
102
}
330
3C1
100
TcOptionalData
 70
     1
 70
   128
 90
        1
  1
#$AUX@_ToolInfo Properties
 70
     8
  1
CMD_LINE@
  0
TCOPTIONALDATA
  5
3C5
102
{ACAD_REACTORS
330
3C4
102
}
330
3C4
100
TcOptionalData
 70
     1
 70
   128
 90
        1
  1
#$AUX@_ToolInfo Properties
 70
     8
  1
CMD_LINE@
  0
TCOPTIONALDATA
  5
3C8
102
{ACAD_REACTORS
330
3C7
102
}
330
3C7
100
TcOptionalData
 70
     1
 70
   128
 90
        1
  1
#$AUX@_ToolInfo Properties
 70
     8
  1
CMD_LINE@
  0
TCOPTIONALDATA
  5
3CB
102
{ACAD_REACTORS
330
3CA
102
}
330
3CA
100
TcOptionalData
 70
     1
 70
   128
 90
        1
  1
#$AUX@_ToolInfo Properties
 70
     8
  1
CMD_LINE@
  0
TCOPTIONALDATA
  5
3CE
102
{ACAD_REACTORS
330
3CD
102
}
330
3CD
100
TcOptionalData
 70
     1
 70
   128
 90
        1
  1
#$AUX@_ToolInfo Properties
 70
     8
  1
CMD_PARALLELDIM@
  0
DIMASSOC
  5
3E0
102
{ACAD_REACTORS
330
3DD
102
}
330
3DD
100
AcDbDimAssoc
330
3DF
 90
       15
 70
     0
 71
     1
  1
AcDbOsnapPointRef
 72
    13
331
3CC
 73
     2
 91
        0
 40
13.0
 10
0.0
 20
0.0
 30
2.000000000000000E+50
 75
     0
  1
AcDbOsnapPointRef
 72
     1
331
3CC
 73
     2
 91
        0
 40
1.0
 10
0.0
 20
0.0
 30
2.000000000000000E+50
 75
     0
  1
AcDbOsnapPointRef
 72
    13
331
1F2
 73
     2
 91
        0
 40
13.0
 10
0.0
 20
0.0
 30
2.000000000000000E+50
 75
     0
  1
AcDbOsnapPointRef
 72
     1
331
1F2
 73
     2
 91
        0
 40
1.0
 10
0.0
 20
0.0
 30
2.000000000000000E+50
 75
     0
  0
TCOPTIONALDATA
  5
3DE
102
{ACAD_REACTORS
330
3DD
102
}
330
3DD
100
TcOptionalData
 70
     1
 70
   128
 90
        1
  1
#$AUX@_ToolInfo Properties
 70
     8
  1
CMD_ANGULARDIM@
  0
TCOPTIONALDATA
  5
3F0
102
{ACAD_REACTORS
330
3EF
102
}
330
3EF
100
TcOptionalData
 70
     1
 70
    32
 40
-4.0
  0
GROUP
  5
2C0
102
{ACAD_REACTORS
330
D
102
}
102
{ACAD_XDICTIONARY
360
2C1
102
}
330
D
100
AcDbGroup
300

 70
     0
 71
     1
340
1EC
340
1EF
340
1F2
340
1F5
340
1F6
340
27A
340
2BF
  0
GROUP
  5
2F2
102
{ACAD_REACTORS
330
D
102
}
102
{ACAD_XDICTIONARY
360
2F3
102
}
330
D
100
AcDbGroup
300

 70
     0
 71
     1
340
2E5
340
2E8
340
2EB
340
2EE
340
2F1
  0
GROUP
  5
304
102
{ACAD_REACTORS
330
D
102
}
102
{ACAD_XDICTIONARY
360
305
102
}
330
D
100
AcDbGroup
300

 70
     0
 71
     1
340
2F7
340
2FA
340
2FD
340
300
340
303
  0
GROUP
  5
313
102
{ACAD_REACTORS
330
D
102
}
102
{ACAD_XDICTIONARY
360
314
102
}
330
D
100
AcDbGroup
300

 70
     0
 71
     1
340
309
340
30C
340
30F
340
312
  0
LAYOUT
  5
22
102
{ACAD_REACTORS
330
1A
102
}
330
1A
100
AcDbPlotSettings
  1

  2
TCAD_Plot
  4
863.00 x 210.00 MM
  6

 40
7.0
 41
7.0
 42
7.0
 43
7.0
 44
863.0
 45
210.0
 46
-7.0
 47
-7.0
 48
-431.5
 49
-105.0
140
431.5
141
105.0
142
1.0
143
1.0
 70
  1696
 72
     1
 73
     0
 74
     4
  7

 75
     0
 76
     0
 77
     2
 78
   300
147
0.58495559360498
148
0.0
149
0.0
100
AcDbLayout
  1
Model
 70
     1
 71
     0
 10
-20.0
 20
-100.0
 11
843.0
 21
110.0
 12
0.0
 22
0.0
 32
0.0
 14
-78.9890167441902
 24
-663.5774875941964
 34
0.0
 15
682.5459383357768
 25
99.29027188172648
 35
0.0
146
0.0
 13
0.0
 23
0.0
 33
0.0
 16
1.0
 26
0.0
 36
0.0
 17
0.0
 27
1.0
 37
0.0
 76
     0
330
1F
331
29
  0
LAYOUT
  5
1E
102
{ACAD_REACTORS
330
1A
102
}
330
1A
100
AcDbPlotSettings
  1

  2
TCAD_Plot
  4
297.00 x 210.00 MM
  6

 40
7.0
 41
7.0
 42
7.0
 43
7.0
 44
297.0
 45
210.0
 46
0.0
 47
0.0
 48
0.0
 49
0.0
140
0.0
141
0.0
142
1.0
143
1.0
 70
   672
 72
     1
 73
     0
 74
     5
  7

 75
    16
 76
     0
 77
     2
 78
   300
147
1.0
148
-7.0
149
-7.0
100
AcDbLayout
  1
Paper 1
 70
     1
 71
     1
 10
0.0
 20
0.0
 11
297.0
 21
210.0
 12
0.0
 22
0.0
 32
0.0
 14
0.0
 24
0.0
 34
0.0
 15
297.0
 25
210.0
 35
0.0
146
0.0
 13
0.0
 23
0.0
 33
0.0
 16
1.0
 26
0.0
 36
0.0
 17
0.0
 27
1.0
 37
0.0
 76
     0
330
1B
331
3F2
  0
MLINESTYLE
  5
18
102
{ACAD_REACTORS
330
17
102
}
330
17
100
AcDbMlineStyle
  2
Standard
 70
     0
  3

 62
   256
 51
90.0
 52
90.0
 71
     5
 49
0.5
 62
   256
  6
BYLAYER
 49
-0.5
 62
   256
  6
BYLAYER
 49
0.25
 62
     7
  6
BYLAYER
 49
0.0
 62
     7
  6
BYLAYER
 49
-0.25
 62
     7
  6
BYLAYER
  0
ACDBPLACEHOLDER
  5
F
102
{ACAD_REACTORS
330
E
102
}
330
E
  0
SCALE
  5
80
102
{ACAD_REACTORS
330
7F
102
}
330
7F
100
AcDbScale
 70
     0
300
1:1
140
1.0
141
1.0
290
     1
  0
SCALE
  5
81
102
{ACAD_REACTORS
330
7F
102
}
330
7F
100
AcDbScale
 70
     0
300
1:2
140
1.0
141
2.0
290
     0
  0
SCALE
  5
82
102
{ACAD_REACTORS
330
7F
102
}
330
7F
100
AcDbScale
 70
     0
300
1:4
140
1.0
141
4.0
290
     0
  0
SCALE
  5
83
102
{ACAD_REACTORS
330
7F
102
}
330
7F
100
AcDbScale
 70
     0
300
1:5
140
1.0
141
5.0
290
     0
  0
SCALE
  5
84
102
{ACAD_REACTORS
330
7F
102
}
330
7F
100
AcDbScale
 70
     0
300
1:8
140
1.0
141
8.0
290
     0
  0
SCALE
  5
85
102
{ACAD_REACTORS
330
7F
102
}
330
7F
100
AcDbScale
 70
     0
300
1:10
140
1.0
141
10.0
290
     0
  0
SCALE
  5
86
102
{ACAD_REACTORS
330
7F
102
}
330
7F
100
AcDbScale
 70
     0
300
1:16
140
1.0
141
16.0
290
     0
  0
SCALE
  5
87
102
{ACAD_REACTORS
330
7F
102
}
330
7F
100
AcDbScale
 70
     0
300
1:20
140
1.0
141
20.0
290
     0
  0
SCALE
  5
88
102
{ACAD_REACTORS
330
7F
102
}
330
7F
100
AcDbScale
 70
     0
300
1:30
140
1.0
141
30.0
290
     0
  0
SCALE
  5
89
102
{ACAD_REACTORS
330
7F
102
}
330
7F
100
AcDbScale
 70
     0
300
1:40
140
1.0
141
40.0
290
     0
  0
SCALE
  5
8A
102
{ACAD_REACTORS
330
7F
102
}
330
7F
100
AcDbScale
 70
     0
300
1:50
140
1.0
141
50.0
290
     0
  0
SCALE
  5
8B
102
{ACAD_REACTORS
330
7F
102
}
330
7F
100
AcDbScale
 70
     0
300
1:100
140
1.0
141
100.0
290
     0
  0
SCALE
  5
8C
102
{ACAD_REACTORS
330
7F
102
}
330
7F
100
AcDbScale
 70
     0
300
2:1
140
2.0
141
1.0
290
     0
  0
SCALE
  5
8D
102
{ACAD_REACTORS
330
7F
102
}
330
7F
100
AcDbScale
 70
     0
300
4:1
140
4.0
141
1.0
290
     0
  0
SCALE
  5
8E
102
{ACAD_REACTORS
330
7F
102
}
330
7F
100
AcDbScale
 70
     0
300
8:1
140
8.0
141
1.0
290
     0
  0
SCALE
  5
8F
102
{ACAD_REACTORS
330
7F
102
}
330
7F
100
AcDbScale
 70
     0
300
10:1
140
10.0
141
1.0
290
     0
  0
SCALE
  5
90
102
{ACAD_REACTORS
330
7F
102
}
330
7F
100
AcDbScale
 70
     0
300
100:1
140
100.0
141
1.0
290
     0
  0
SCALE
  5
91
102
{ACAD_REACTORS
330
7F
102
}
330
7F
100
AcDbScale
 70
     0
300
1/128" = 1'-0"
140
0.0078125
141
12.0
290
     0
  0
SCALE
  5
92
102
{ACAD_REACTORS
330
7F
102
}
330
7F
100
AcDbScale
 70
     0
300
1/64" = 1'-0"
140
0.015625
141
12.0
290
     0
  0
SCALE
  5
93
102
{ACAD_REACTORS
330
7F
102
}
330
7F
100
AcDbScale
 70
     0
300
1/32" = 1'-0"
140
0.03125
141
12.0
290
     0
  0
SCALE
  5
94
102
{ACAD_REACTORS
330
7F
102
}
330
7F
100
AcDbScale
 70
     0
300
1/16" = 1'-0"
140
0.0625
141
12.0
290
     0
  0
SCALE
  5
95
102
{ACAD_REACTORS
330
7F
102
}
330
7F
100
AcDbScale
 70
     0
300
3/32" = 1'-0"
140
0.09375
141
12.0
290
     0
  0
SCALE
  5
96
102
{ACAD_REACTORS
330
7F
102
}
330
7F
100
AcDbScale
 70
     0
300
1/8" = 1'-0"
140
0.125
141
12.0
290
     0
  0
SCALE
  5
97
102
{ACAD_REACTORS
330
7F
102
}
330
7F
100
AcDbScale
 70
     0
300
3/16" = 1'-0"
140
0.1875
141
12.0
290
     0
  0
SCALE
  5
98
102
{ACAD_REACTORS
330
7F
102
}
330
7F
100
AcDbScale
 70
     0
300
1/4" = 1'-0"
140
0.25
141
12.0
290
     0
  0
SCALE
  5
99
102
{ACAD_REACTORS
330
7F
102
}
330
7F
100
AcDbScale
 70
     0
300
3/8" = 1'-0"
140
0.375
141
12.0
290
     0
  0
SCALE
  5
9A
102
{ACAD_REACTORS
330
7F
102
}
330
7F
100
AcDbScale
 70
     0
300
1/2" = 1'-0"
140
0.5
141
12.0
290
     0
  0
SCALE
  5
9B
102
{ACAD_REACTORS
330
7F
102
}
330
7F
100
AcDbScale
 70
     0
300
3/4" = 1'-0"
140
0.75
141
12.0
290
     0
  0
SCALE
  5
9C
102
{ACAD_REACTORS
330
7F
102
}
330
7F
100
AcDbScale
 70
     0
300
1" = 1'-0"
140
1.0
141
12.0
290
     0
  0
SCALE
  5
9D
102
{ACAD_REACTORS
330
7F
102
}
330
7F
100
AcDbScale
 70
     0
300
1-1/2" = 1'-0"
140
1.5
141
12.0
290
     0
  0
SCALE
  5
9E
102
{ACAD_REACTORS
330
7F
102
}
330
7F
100
AcDbScale
 70
     0
300
3" = 1'-0"
140
3.0
141
12.0
290
     0
  0
SCALE
  5
9F
102
{ACAD_REACTORS
330
7F
102
}
330
7F
100
AcDbScale
 70
     0
300
6" = 1'-0"
140
6.0
141
12.0
290
     0
  0
SCALE
  5
A0
102
{ACAD_REACTORS
330
7F
102
}
330
7F
100
AcDbScale
 70
     0
300
1'-0" = 1'-0"
140
12.0
141
12.0
290
     0
  0
TABLESTYLE
  5
4C
102
{ACAD_REACTORS
330
4B
102
}
102
{ACAD_XDICTIONARY
360
3F5
102
}
330
4B
100
AcDbTableStyle
  3

 70
     0
 71
     0
 40
0.05
 41
0.05
280
     0
281
     0
  7
Standard
140
0.15
170
     5
 62
     0
 63
   257
283
     0
 90
        4
 91
        0
  1

274
    -2
284
     1
 64
     0
275
    -2
285
     1
 65
     0
276
    -2
286
     1
 66
     0
277
    -2
287
     1
 67
     0
278
    -2
288
     1
 68
     0
279
    -2
289
     1
 69
     0
  7
Standard
140
0.15
170
     5
 62
     0
 63
   257
283
     0
 90
        4
 91
        0
  1

274
    -2
284
     1
 64
     0
275
    -2
285
     1
 65
     0
276
    -2
286
     1
 66
     0
277
    -2
287
     1
 67
     0
278
    -2
288
     1
 68
     0
279
    -2
289
     1
 69
     0
  7
Standard
140
0.15
170
     5
 62
     0
 63
   257
283
     0
 90
        4
 91
        0
  1

274
    -2
284
     1
 64
     0
275
    -2
285
     1
 65
     0
276
    -2
286
     1
 66
     0
277
    -2
287
     1
 67
     0
278
    -2
288
     1
 68
     0
279
    -2
289
     1
 69
     0
  0
VISUALSTYLE
  5
2F
102
{ACAD_REACTORS
330
2A
102
}
330
2A
100
AcDbVisualStyle
  2
2dWireframe
 70
     4
 71
     0
 72
     2
 73
     0
 90
        0
 40
-0.6
 41
-30.0
 62
     5
 63
     7
421
 16777215
 74
     1
 91
        4
 64
     7
 65
   257
 75
     1
175
     1
 42
1.0
 92
        0
 66
   257
 43
1.0
 76
     1
 77
     6
 78
     2
 67
     7
 79
     5
170
     0
171
     0
290
     0
174
     0
 93
        1
 44
0.0
173
     0
291
     0
 45
0.0
  0
VISUALSTYLE
  5
31
102
{ACAD_REACTORS
330
2A
102
}
330
2A
100
AcDbVisualStyle
  2
3D Hidden
 70
     6
 71
     1
 72
     2
 73
     2
 90
        0
 40
-0.6
 41
-30.0
 62
     5
 63
     7
421
 16777215
 74
     2
 91
        2
 64
     7
 65
   257
 75
     2
175
     1
 42
40.0
 92
        0
 66
   257
 43
1.0
 76
     1
 77
     6
 78
     2
 67
     7
 79
     3
170
     0
171
     0
290
     0
174
     0
 93
        1
 44
0.0
173
     0
291
     0
 45
0.0
  0
VISUALSTYLE
  5
30
102
{ACAD_REACTORS
330
2A
102
}
330
2A
100
AcDbVisualStyle
  2
3dWireframe
 70
     5
 71
     0
 72
     2
 73
     0
 90
        0
 40
-0.6
 41
-30.0
 62
     5
 63
     7
421
 16777215
 74
     1
 91
        4
 64
     7
 65
   257
 75
     1
175
     1
 42
1.0
 92
        0
 66
   257
 43
1.0
 76
     1
 77
     6
 78
     2
 67
     7
 79
     5
170
     0
171
     0
290
     0
174
     0
 93
        1
 44
0.0
173
     0
291
     0
 45
0.0
  0
VISUALSTYLE
  5
32
102
{ACAD_REACTORS
330
2A
102
}
330
2A
100
AcDbVisualStyle
  2
Basic
 70
     7
 71
     1
 72
     0
 73
     1
 90
        0
 40
-0.6
 41
-30.0
 62
     5
 63
     7
421
 16777215
 74
     0
 91
        4
 64
     7
 65
   257
 75
     1
175
     1
 42
1.0
 92
        8
 66
     7
 43
1.0
 76
     1
 77
     6
 78
     2
 67
     7
 79
     5
170
     0
171
     0
290
     0
174
     0
 93
        1
 44
0.0
173
     0
291
     1
 45
0.0
  0
VISUALSTYLE
  5
36
102
{ACAD_REACTORS
330
2A
102
}
330
2A
100
AcDbVisualStyle
  2
Brighten
 70
    12
 71
     2
 72
     2
 73
     0
 90
        0
 40
-0.6
 41
-30.0
 62
     5
 63
     7
421
 16777215
 74
     1
 91
        4
 64
     7
 65
   257
 75
     1
175
     1
 42
1.0
 92
        8
 66
     7
 43
1.0
 76
     1
 77
     6
 78
     2
 67
     7
 79
     5
170
     0
171
     0
290
     0
174
     0
 93
        1
 44
50.0
173
     0
291
     1
 45
0.0
  0
VISUALSTYLE
  5
3A
102
{ACAD_REACTORS
330
2A
102
}
330
2A
100
AcDbVisualStyle
  2
ColorChange
 70
    16
 71
     2
 72
     2
 73
     3
 90
        0
 40
-0.6
 41
-30.0
 62
     5
 63
     8
421
  8421504
 74
     1
 91
        4
 64
     7
 65
   257
 75
     1
175
     1
 42
1.0
 92
        8
 66
     8
424
  8421504
 43
1.0
 76
     1
 77
     6
 78
     2
 67
     7
 79
     5
170
     0
171
     0
290
     0
174
     0
 93
        1
 44
0.0
173
     0
291
     1
 45
0.0
  0
VISUALSTYLE
  5
34
102
{ACAD_REACTORS
330
2A
102
}
330
2A
100
AcDbVisualStyle
  2
Conceptual
 70
     9
 71
     3
 72
     2
 73
     0
 90
        0
 40
-0.6
 41
-30.0
 62
     5
 63
     7
421
 16777215
 74
     2
 91
        2
 64
     7
 65
   257
 75
     1
175
     1
 42
40.0
 92
        8
 66
     7
 43
1.0
 76
     1
 77
     6
 78
     2
 67
     7
 79
     3
170
     0
171
     0
290
     0
174
     0
 93
        1
 44
0.0
173
     0
291
     0
 45
0.0
  0
VISUALSTYLE
  5
35
102
{ACAD_REACTORS
330
2A
102
}
330
2A
100
AcDbVisualStyle
  2
Dim
 70
    11
 71
     2
 72
     2
 73
     0
 90
        0
 40
-0.6
 41
-30.0
 62
     5
 63
     7
421
 16777215
 74
     1
 91
        4
 64
     7
 65
   257
 75
     1
175
     1
 42
1.0
 92
        8
 66
     7
 43
1.0
 76
     1
 77
     6
 78
     2
 67
     7
 79
     5
170
     0
171
     0
290
     0
174
     0
 93
        1
 44
-50.0
173
     0
291
     1
 45
0.0
  0
VISUALSTYLE
  5
39
102
{ACAD_REACTORS
330
2A
102
}
330
2A
100
AcDbVisualStyle
  2
Facepattern
 70
    15
 71
     2
 72
     2
 73
     0
 90
        0
 40
-0.6
 41
-30.0
 62
     5
 63
     7
421
 16777215
 74
     1
 91
        4
 64
     7
 65
   257
 75
     1
175
     1
 42
1.0
 92
        8
 66
     7
 43
1.0
 76
     1
 77
     6
 78
     2
 67
     7
 79
     5
170
     0
171
     0
290
     0
174
     0
 93
        1
 44
0.0
173
     0
291
     1
 45
0.0
  0
VISUALSTYLE
  5
2B
102
{ACAD_REACTORS
330
2A
102
}
330
2A
100
AcDbVisualStyle
  2
Flat
 70
     0
 71
     2
 72
     1
 73
     1
 90
        2
 40
-0.6
 41
30.0
 62
     5
 63
     7
421
 16777215
 74
     0
 91
        4
 64
     7
 65
   257
 75
     1
175
     1
 42
1.0
 92
        8
 66
     7
 43
1.0
 76
     1
 77
     6
 78
     2
 67
     7
 79
     5
170
     0
171
     0
290
     0
174
     0
 93
       13
 44
0.0
173
     0
291
     1
 45
0.0
  0
VISUALSTYLE
  5
2C
102
{ACAD_REACTORS
330
2A
102
}
330
2A
100
AcDbVisualStyle
  2
FlatWithEdges
 70
     1
 71
     2
 72
     1
 73
     1
 90
        2
 40
-0.6
 41
30.0
 62
     5
 63
     7
421
 16777215
 74
     1
 91
        4
 64
     7
 65
   257
 75
     1
175
     1
 42
1.0
 92
        0
 66
   257
 43
1.0
 76
     1
 77
     6
 78
     2
 67
     7
 79
     5
170
     0
171
     0
290
     0
174
     0
 93
       13
 44
0.0
173
     0
291
     1
 45
0.0
  0
VISUALSTYLE
  5
2D
102
{ACAD_REACTORS
330
2A
102
}
330
2A
100
AcDbVisualStyle
  2
Gouraud
 70
     2
 71
     2
 72
     2
 73
     1
 90
        2
 40
-0.6
 41
30.0
 62
     5
 63
     7
421
 16777215
 74
     0
 91
        4
 64
     7
 65
   257
 75
     1
175
     1
 42
1.0
 92
        0
 66
     7
 43
1.0
 76
     1
 77
     6
 78
     2
 67
     7
 79
     5
170
     0
171
     0
290
     0
174
     0
 93
       13
 44
0.0
173
     0
291
     1
 45
0.0
  0
VISUALSTYLE
  5
2E
102
{ACAD_REACTORS
330
2A
102
}
330
2A
100
AcDbVisualStyle
  2
GouraudWithEdges
 70
     3
 71
     2
 72
     2
 73
     1
 90
        2
 40
-0.6
 41
30.0
 62
     5
 63
     7
421
 16777215
 74
     1
 91
        4
 64
     7
 65
   257
 75
     1
175
     1
 42
1.0
 92
        0
 66
   257
 43
1.0
 76
     1
 77
     6
 78
     2
 67
     7
 79
     5
170
     0
171
     0
290
     0
174
     0
 93
       13
 44
0.0
173
     0
291
     1
 45
0.0
  0
VISUALSTYLE
  5
38
102
{ACAD_REACTORS
330
2A
102
}
330
2A
100
AcDbVisualStyle
  2
Linepattern
 70
    14
 71
     2
 72
     2
 73
     0
 90
        0
 40
-0.6
 41
-30.0
 62
     5
 63
     7
421
 16777215
 74
     1
 91
        4
 64
     7
 65
   257
 75
     7
175
     7
 42
1.0
 92
        8
 66
     7
 43
1.0
 76
     1
 77
     6
 78
     2
 67
     7
 79
     5
170
     0
171
     0
290
     0
174
     0
 93
        1
 44
0.0
173
     0
291
     1
 45
0.0
  0
VISUALSTYLE
  5
33
102
{ACAD_REACTORS
330
2A
102
}
330
2A
100
AcDbVisualStyle
  2
Realistic
 70
     8
 71
     2
 72
     2
 73
     0
 90
        0
 40
-0.6
 41
-30.0
 62
     5
 63
     7
421
 16777215
 74
     1
 91
        0
 64
     7
 65
   257
 75
     1
175
     1
 42
1.0
 92
        8
 66
     8
424
  7895160
 43
1.0
 76
     1
 77
     6
 78
     2
 67
     7
 79
     5
170
     0
171
     0
290
     0
174
     0
 93
       13
 44
0.0
173
     0
291
     0
 45
0.0
  0
VISUALSTYLE
  5
37
102
{ACAD_REACTORS
330
2A
102
}
330
2A
100
AcDbVisualStyle
  2
Thicken
 70
    13
 71
     2
 72
     2
 73
     0
 90
        0
 40
-0.6
 41
-30.0
 62
     5
 63
     7
421
 16777215
 74
     1
 91
        4
 64
     7
 65
   257
 75
     1
175
     1
 42
1.0
 92
       12
 66
     7
 43
1.0
 76
     1
 77
     6
 78
     2
 67
     7
 79
     5
170
     0
171
     0
290
     0
174
     0
 93
        1
 44
0.0
173
     0
291
     1
 45
0.0
  0
DICTIONARYVAR
  5
3F4
102
{ACAD_REACTORS
330
3F3
102
}
330
3F3
100
DictionaryVariables
280
     0
  1
1:1
  0
DICTIONARY
  5
2C1
330
2C0
100
AcDbDictionary
280
     1
281
     1
  3
TC_OPTIONAL_DATA
360
2C2
  0
DICTIONARY
  5
2F3
330
2F2
100
AcDbDictionary
280
     1
281
     1
  3
TC_OPTIONAL_DATA
360
2F4
  0
DICTIONARY
  5
305
330
304
100
AcDbDictionary
280
     1
281
     1
  3
TC_OPTIONAL_DATA
360
306
  0
DICTIONARY
  5
314
330
313
100
AcDbDictionary
280
     1
281
     1
  3
TC_OPTIONAL_DATA
360
315
  0
DICTIONARY
  5
3F5
330
4C
100
AcDbDictionary
280
     1
281
     1
  3
ACAD_ROUNDTRIP_2008_TABLESTYLE_CELLSTYLEMAP
360
3F6
  0
TCOPTIONALDATA
  5
2C2
102
{ACAD_REACTORS
330
2C1
102
}
330
2C1
100
TcOptionalData
 70
     1
 70
     2
 10
133.9667425844802
 20
35.87
 30
0.0
  0
TCOPTIONALDATA
  5
2F4
102
{ACAD_REACTORS
330
2F3
102
}
330
2F3
100
TcOptionalData
 70
     1
 70
     2
 10
134.375
 20
-129.5
 30
0.0
  0
TCOPTIONALDATA
  5
306
102
{ACAD_REACTORS
330
305
102
}
330
305
100
TcOptionalData
 70
     1
 70
     2
 10
134.38
 20
-510.5
 30
0.0
  0
TCOPTIONALDATA
  5
315
102
{ACAD_REACTORS
330
314
102
}
330
314
100
TcOptionalData
 70
     1
 70
     2
 10
342.0700000000001
 20
-319.74
 30
0.0
  0
CELLSTYLEMAP
  5
3F6
102
{ACAD_REACTORS
330
3F5
102
}
330
3F5
100
AcDbCellStyleMap
 90
        3
300
CELLSTYLE
  1
TABLEFORMAT_BEGIN
 90
        5
170
     1
 91
        0
 92
        0
 62
   257
 93
        1
300
CONTENTFORMAT
  1
CONTENTFORMAT_BEGIN
 90
        0
 91
        0
 92
        4
 93
        0
300

 40
0.0
140
1.0
 94
        5
 62
     0
340
11
144
0.15
309
CONTENTFORMAT_END
171
     0
 94
        6
 95
        1
302
GRIDFORMAT
  1
GRIDFORMAT_BEGIN
 90
        0
 91
        1
 62
     0
 92
       -2
340
0
 93
        0
 40
0.045
309
GRIDFORMAT_END
 95
        2
302
GRIDFORMAT
  1
GRIDFORMAT_BEGIN
 90
        0
 91
        1
 62
     0
 92
       -2
340
0
 93
        0
 40
0.045
309
GRIDFORMAT_END
 95
        4
302
GRIDFORMAT
  1
GRIDFORMAT_BEGIN
 90
        0
 91
        1
 62
     0
 92
       -2
340
0
 93
        0
 40
0.045
309
GRIDFORMAT_END
 95
        8
302
GRIDFORMAT
  1
GRIDFORMAT_BEGIN
 90
        0
 91
        1
 62
     0
 92
       -2
340
0
 93
        0
 40
0.045
309
GRIDFORMAT_END
 95
       16
302
GRIDFORMAT
  1
GRIDFORMAT_BEGIN
 90
        0
 91
        1
 62
     0
 92
       -2
340
0
 93
        0
 40
0.045
309
GRIDFORMAT_END
 95
       32
302
GRIDFORMAT
  1
GRIDFORMAT_BEGIN
 90
        0
 91
        1
 62
     0
 92
       -2
340
0
 93
        0
 40
0.045
309
GRIDFORMAT_END
309
TABLEFORMAT_END
  1
CELLSTYLE_BEGIN
 90
        1
 91
        1
300
_TITLE
309
CELLSTYLE_END
300
CELLSTYLE
  1
TABLEFORMAT_BEGIN
 90
        5
170
     1
 91
        0
 92
        0
 62
   257
 93
        1
300
CONTENTFORMAT
  1
CONTENTFORMAT_BEGIN
 90
        0
 91
        0
 92
        4
 93
        0
300

 40
0.0
140
1.0
 94
        5
 62
     0
340
11
144
0.15
309
CONTENTFORMAT_END
171
     0
 94
        6
 95
        1
302
GRIDFORMAT
  1
GRIDFORMAT_BEGIN
 90
        0
 91
        1
 62
     0
 92
       -2
340
0
 93
        0
 40
0.045
309
GRIDFORMAT_END
 95
        2
302
GRIDFORMAT
  1
GRIDFORMAT_BEGIN
 90
        0
 91
        1
 62
     0
 92
       -2
340
0
 93
        0
 40
0.045
309
GRIDFORMAT_END
 95
        4
302
GRIDFORMAT
  1
GRIDFORMAT_BEGIN
 90
        0
 91
        1
 62
     0
 92
       -2
340
0
 93
        0
 40
0.045
309
GRIDFORMAT_END
 95
        8
302
GRIDFORMAT
  1
GRIDFORMAT_BEGIN
 90
        0
 91
        1
 62
     0
 92
       -2
340
0
 93
        0
 40
0.045
309
GRIDFORMAT_END
 95
       16
302
GRIDFORMAT
  1
GRIDFORMAT_BEGIN
 90
        0
 91
        1
 62
     0
 92
       -2
340
0
 93
        0
 40
0.045
309
GRIDFORMAT_END
 95
       32
302
GRIDFORMAT
  1
GRIDFORMAT_BEGIN
 90
        0
 91
        1
 62
     0
 92
       -2
340
0
 93
        0
 40
0.045
309
GRIDFORMAT_END
309
TABLEFORMAT_END
  1
CELLSTYLE_BEGIN
 90
        2
 91
        1
300
_HEADER
309
CELLSTYLE_END
300
CELLSTYLE
  1
TABLEFORMAT_BEGIN
 90
        5
170
     1
 91
        0
 92
        0
 62
   257
 93
        1
300
CONTENTFORMAT
  1
CONTENTFORMAT_BEGIN
 90
        0
 91
        0
 92
        4
 93
        0
300

 40
0.0
140
1.0
 94
        5
 62
     0
340
11
144
0.15
309
CONTENTFORMAT_END
171
     0
 94
        6
 95
        1
302
GRIDFORMAT
  1
GRIDFORMAT_BEGIN
 90
        0
 91
        1
 62
     0
 92
       -2
340
0
 93
        0
 40
0.045
309
GRIDFORMAT_END
 95
        2
302
GRIDFORMAT
  1
GRIDFORMAT_BEGIN
 90
        0
 91
        1
 62
     0
 92
       -2
340
0
 93
        0
 40
0.045
309
GRIDFORMAT_END
 95
        4
302
GRIDFORMAT
  1
GRIDFORMAT_BEGIN
 90
        0
 91
        1
 62
     0
 92
       -2
340
0
 93
        0
 40
0.045
309
GRIDFORMAT_END
 95
        8
302
GRIDFORMAT
  1
GRIDFORMAT_BEGIN
 90
        0
 91
        1
 62
     0
 92
       -2
340
0
 93
        0
 40
0.045
309
GRIDFORMAT_END
 95
       16
302
GRIDFORMAT
  1
GRIDFORMAT_BEGIN
 90
        0
 91
        1
 62
     0
 92
       -2
340
0
 93
        0
 40
0.045
309
GRIDFORMAT_END
 95
       32
302
GRIDFORMAT
  1
GRIDFORMAT_BEGIN
 90
        0
 91
        1
 62
     0
 92
       -2
340
0
 93
        0
 40
0.045
309
GRIDFORMAT_END
309
TABLEFORMAT_END
  1
CELLSTYLE_BEGIN
 90
        3
 91
        2
300
_DATA
309
CELLSTYLE_END
  0
ENDSEC
  0
EOF
